  0
SECTION
  2
HEADER
  9
$ACADVER
  1
AC1027
  9
$ACADMAINTVER
 70
   105
  9
$DWGCODEPAGE
  3
ANSI_932
  9
$REQUIREDVERSIONS
160
                 0
  9
$INSBASE
 10
0.0
 20
0.0
 30
0.0
  9
$EXTMIN
 10
-20.0
 20
95.0
 30
0.0
  9
$EXTMAX
 10
20.0
 20
122.7
 30
0.0
  9
$LIMMIN
 10
-20.0
 20
95.0
  9
$LIMMAX
 10
20.0
 20
122.7
  9
$ORTHOMODE
 70
     0
  9
$REGENMODE
 70
     1
  9
$FILLMODE
 70
     1
  9
$QTEXTMODE
 70
     0
  9
$MIRRTEXT
 70
     1
  9
$LTSCALE
 40
1.0
  9
$ATTMODE
 70
     1
  9
$TEXTSIZE
 40
0.2
  9
$TRACEWID
 40
0.05
  9
$TEXTSTYLE
  7
Standard
  9
$CLAYER
  8
0
  9
$CELTYPE
  6
ByLayer
  9
$CECOLOR
 62
   256
  9
$CELTSCALE
 40
1.0
  9
$DISPSILH
 70
     0
  9
$DIMSCALE
 40
1.0
  9
$DIMASZ
 40
0.18
  9
$DIMEXO
 40
0.0625
  9
$DIMDLI
 40
0.38
  9
$DIMRND
 40
0.0
  9
$DIMDLE
 40
0.0
  9
$DIMEXE
 40
0.18
  9
$DIMTP
 40
0.0
  9
$DIMTM
 40
0.0
  9
$DIMTXT
 40
0.18
  9
$DIMCEN
 40
0.09
  9
$DIMTSZ
 40
0.0
  9
$DIMTOL
 70
     0
  9
$DIMLIM
 70
     0
  9
$DIMTIH
 70
     1
  9
$DIMTOH
 70
     1
  9
$DIMSE1
 70
     0
  9
$DIMSE2
 70
     0
  9
$DIMTAD
 70
     0
  9
$DIMZIN
 70
     0
  9
$DIMBLK
  1

  9
$DIMASO
 70
     1
  9
$DIMSHO
 70
     1
  9
$DIMPOST
  1

  9
$DIMAPOST
  1

  9
$DIMALT
 70
     0
  9
$DIMALTD
 70
     2
  9
$DIMALTF
 40
25.4
  9
$DIMLFAC
 40
1.0
  9
$DIMTOFL
 70
     0
  9
$DIMTVP
 40
0.0
  9
$DIMTIX
 70
     0
  9
$DIMSOXD
 70
     0
  9
$DIMSAH
 70
     0
  9
$DIMBLK1
  1

  9
$DIMBLK2
  1

  9
$DIMSTYLE
  2
Standard
  9
$DIMCLRD
 70
     0
  9
$DIMCLRE
 70
     0
  9
$DIMCLRT
 70
     0
  9
$DIMTFAC
 40
1.0
  9
$DIMGAP
 40
0.09
  9
$DIMJUST
 70
     0
  9
$DIMSD1
 70
     0
  9
$DIMSD2
 70
     0
  9
$DIMTOLJ
 70
     1
  9
$DIMTZIN
 70
     0
  9
$DIMALTZ
 70
     0
  9
$DIMALTTZ
 70
     0
  9
$DIMUPT
 70
     0
  9
$DIMDEC
 70
     4
  9
$DIMTDEC
 70
     4
  9
$DIMALTU
 70
     2
  9
$DIMALTTD
 70
     2
  9
$DIMTXSTY
  7
Standard
  9
$DIMAUNIT
 70
     0
  9
$DIMADEC
 70
     0
  9
$DIMALTRND
 40
0.0
  9
$DIMAZIN
 70
     0
  9
$DIMDSEP
 70
    46
  9
$DIMATFIT
 70
     3
  9
$DIMFRAC
 70
     0
  9
$DIMLDRBLK
  1

  9
$DIMLUNIT
 70
     2
  9
$DIMLWD
 70
    -2
  9
$DIMLWE
 70
    -2
  9
$DIMTMOVE
 70
     0
  9
$DIMFXL
 40
1.0
  9
$DIMFXLON
 70
     0
  9
$DIMJOGANG
 40
0.7853981633974483
  9
$DIMTFILL
 70
     0
  9
$DIMTFILLCLR
 70
     0
  9
$DIMARCSYM
 70
     0
  9
$DIMLTYPE
  6

  9
$DIMLTEX1
  6

  9
$DIMLTEX2
  6

  9
$DIMTXTDIRECTION
 70
     0
  9
$LUNITS
 70
     2
  9
$LUPREC
 70
     4
  9
$SKETCHINC
 40
0.1
  9
$FILLETRAD
 40
0.5
  9
$AUNITS
 70
     0
  9
$AUPREC
 70
     0
  9
$MENU
  1
.
  9
$ELEVATION
 40
0.0
  9
$PELEVATION
 40
0.0
  9
$THICKNESS
 40
0.0
  9
$LIMCHECK
 70
     0
  9
$CHAMFERA
 40
0.0
  9
$CHAMFERB
 40
0.0
  9
$CHAMFERC
 40
0.0
  9
$CHAMFERD
 40
0.0
  9
$SKPOLY
 70
     0
  9
$TDCREATE
 40
2459646.57158213
  9
$TDUCREATE
 40
2459646.19658213
  9
$TDUPDATE
 40
2459646.571585208
  9
$TDUUPDATE
 40
2459646.196585208
  9
$TDINDWG
 40
0.0000000116
  9
$TDUSRTIMER
 40
0.0000000116
  9
$USRTIMER
 70
     1
  9
$ANGBASE
 50
0.0
  9
$ANGDIR
 70
     0
  9
$PDMODE
 70
     0
  9
$PDSIZE
 40
0.0
  9
$PLINEWID
 40
0.0
  9
$SPLFRAME
 70
     0
  9
$SPLINETYPE
 70
     6
  9
$SPLINESEGS
 70
     8
  9
$HANDSEED
  5
41D
  9
$SURFTAB1
 70
     6
  9
$SURFTAB2
 70
     6
  9
$SURFTYPE
 70
     6
  9
$SURFU
 70
     6
  9
$SURFV
 70
     6
  9
$UCSBASE
  2

  9
$UCSNAME
  2

  9
$UCSORG
 10
0.0
 20
0.0
 30
0.0
  9
$UCSXDIR
 10
1.0
 20
0.0
 30
0.0
  9
$UCSYDIR
 10
0.0
 20
1.0
 30
0.0
  9
$UCSORTHOREF
  2

  9
$UCSORTHOVIEW
 70
     0
  9
$UCSORGTOP
 10
0.0
 20
0.0
 30
0.0
  9
$UCSORGBOTTOM
 10
0.0
 20
0.0
 30
0.0
  9
$UCSORGLEFT
 10
0.0
 20
0.0
 30
0.0
  9
$UCSORGRIGHT
 10
0.0
 20
0.0
 30
0.0
  9
$UCSORGFRONT
 10
0.0
 20
0.0
 30
0.0
  9
$UCSORGBACK
 10
0.0
 20
0.0
 30
0.0
  9
$PUCSBASE
  2

  9
$PUCSNAME
  2

  9
$PUCSORG
 10
0.0
 20
0.0
 30
0.0
  9
$PUCSXDIR
 10
1.0
 20
0.0
 30
0.0
  9
$PUCSYDIR
 10
0.0
 20
1.0
 30
0.0
  9
$PUCSORTHOREF
  2

  9
$PUCSORTHOVIEW
 70
     0
  9
$PUCSORGTOP
 10
0.0
 20
0.0
 30
0.0
  9
$PUCSORGBOTTOM
 10
0.0
 20
0.0
 30
0.0
  9
$PUCSORGLEFT
 10
0.0
 20
0.0
 30
0.0
  9
$PUCSORGRIGHT
 10
0.0
 20
0.0
 30
0.0
  9
$PUCSORGFRONT
 10
0.0
 20
0.0
 30
0.0
  9
$PUCSORGBACK
 10
0.0
 20
0.0
 30
0.0
  9
$USERI1
 70
     0
  9
$USERI2
 70
     0
  9
$USERI3
 70
     0
  9
$USERI4
 70
     0
  9
$USERI5
 70
     0
  9
$USERR1
 40
0.0
  9
$USERR2
 40
0.0
  9
$USERR3
 40
0.0
  9
$USERR4
 40
0.0
  9
$USERR5
 40
0.0
  9
$WORLDVIEW
 70
     1
  9
$SHADEDGE
 70
     3
  9
$SHADEDIF
 70
    70
  9
$TILEMODE
 70
     1
  9
$MAXACTVP
 70
    64
  9
$PINSBASE
 10
0.0
 20
0.0
 30
0.0
  9
$PLIMCHECK
 70
     0
  9
$PEXTMIN
 10
1.000000000000000E+20
 20
1.000000000000000E+20
 30
1.000000000000000E+20
  9
$PEXTMAX
 10
-1.000000000000000E+20
 20
-1.000000000000000E+20
 30
-1.000000000000000E+20
  9
$PLIMMIN
 10
0.0
 20
0.0
  9
$PLIMMAX
 10
12.0
 20
9.0
  9
$UNITMODE
 70
     0
  9
$VISRETAIN
 70
     1
  9
$PLINEGEN
 70
     0
  9
$PSLTSCALE
 70
     1
  9
$TREEDEPTH
 70
  3020
  9
$CMLSTYLE
  2
Standard
  9
$CMLJUST
 70
     0
  9
$CMLSCALE
 40
1.0
  9
$PROXYGRAPHICS
 70
     1
  9
$MEASUREMENT
 70
     0
  9
$CELWEIGHT
370
    -1
  9
$ENDCAPS
280
     0
  9
$JOINSTYLE
280
     0
  9
$LWDISPLAY
290
     0
  9
$INSUNITS
 70
     6
  9
$HYPERLINKBASE
  1

  9
$STYLESHEET
  1

  9
$XEDIT
290
     1
  9
$CEPSNTYPE
380
     0
  9
$PSTYLEMODE
290
     1
  9
$FINGERPRINTGUID
  2
{53697376-e624-4b99-8be4-6f7282983bee}
  9
$VERSIONGUID
  2
{FAEB1C32-E019-11D5-929B-00C0DF256EC4}
  9
$EXTNAMES
290
     1
  9
$PSVPSCALE
 40
0.0
  9
$OLESTARTUP
290
     0
  9
$SORTENTS
280
   127
  9
$INDEXCTL
280
     0
  9
$HIDETEXT
280
     1
  9
$XCLIPFRAME
280
     2
  9
$HALOGAP
280
     0
  9
$OBSCOLOR
 70
   257
  9
$OBSLTYPE
280
     0
  9
$INTERSECTIONDISPLAY
280
     0
  9
$INTERSECTIONCOLOR
 70
   257
  9
$DIMASSOC
280
     2
  9
$PROJECTNAME
  1

  9
$CAMERADISPLAY
290
     0
  9
$LENSLENGTH
 40
50.0
  9
$CAMERAHEIGHT
 40
0.0
  9
$STEPSPERSEC
 40
2.0
  9
$STEPSIZE
 40
6.0
  9
$3DDWFPREC
 40
2.0
  9
$PSOLWIDTH
 40
0.25
  9
$PSOLHEIGHT
 40
4.0
  9
$LOFTANG1
 40
1.570796326794897
  9
$LOFTANG2
 40
1.570796326794897
  9
$LOFTMAG1
 40
0.0
  9
$LOFTMAG2
 40
0.0
  9
$LOFTPARAM
 70
     7
  9
$LOFTNORMALS
280
     1
  9
$LATITUDE
 40
37.795
  9
$LONGITUDE
 40
-122.394
  9
$NORTHDIRECTION
 40
0.0
  9
$TIMEZONE
 70
 -8000
  9
$LIGHTGLYPHDISPLAY
280
     1
  9
$TILEMODELIGHTSYNCH
280
     1
  9
$CMATERIAL
347
44
  9
$SOLIDHIST
280
     0
  9
$SHOWHIST
280
     1
  9
$DWFFRAME
280
     2
  9
$DGNFRAME
280
     2
  9
$REALWORLDSCALE
290
     1
  9
$INTERFERECOLOR
 62
   256
  9
$CSHADOW
280
     0
  9
$SHADOWPLANELOCATION
 40
0.0
  0
ENDSEC
  0
SECTION
  2
CLASSES
  0
CLASS
  1
ACDBDICTIONARYWDFLT
  2
AcDbDictionaryWithDefault
  3
ObjectDBX Classes
 90
        0
 91
        3
280
     0
281
     0
  0
CLASS
  1
VISUALSTYLE
  2
AcDbVisualStyle
  3
ObjectDBX Classes
 90
     4095
 91
        3
280
     0
281
     0
  0
CLASS
  1
MATERIAL
  2
AcDbMaterial
  3
ObjectDBX Classes
 90
     1153
 91
        3
280
     0
281
     0
  0
CLASS
  1
SCALE
  2
AcDbScale
  3
ObjectDBX Classes
 90
     1153
 91
        3
280
     0
281
     0
  0
CLASS
  1
TABLESTYLE
  2
AcDbTableStyle
  3
ObjectDBX Classes
 90
     4095
 91
        3
280
     0
281
     0
  0
CLASS
  1
MLEADERSTYLE
  2
AcDbMLeaderStyle
  3
ACDB_MLEADERSTYLE_CLASS
 90
     4095
 91
        3
280
     0
281
     0
  0
CLASS
  1
SUN
  2
AcDbSun
  3
SCENEOE
 90
     1153
 91
        3
280
     0
281
     0
  0
CLASS
  1
DICTIONARYVAR
  2
AcDbDictionaryVar
  3
ObjectDBX Classes
 90
        0
 91
        3
280
     0
281
     0
  0
CLASS
  1
CELLSTYLEMAP
  2
AcDbCellStyleMap
  3
ObjectDBX Classes
 90
     1152
 91
        3
280
     0
281
     0
  0
ENDSEC
  0
SECTION
  2
TABLES
  0
TABLE
  2
VPORT
  5
8
330
0
100
AcDbSymbolTable
 70
     1
  0
VPORT
  5
29
330
8
100
AcDbSymbolTableRecord
100
AcDbViewportTableRecord
  2
*Active
 70
     0
 10
0.0
 20
0.0
 11
1.0
 21
1.0
 12
0.0
 22
108.85
 13
0.0
 23
0.0
 14
0.5
 24
0.5
 15
0.5
 25
0.5
 16
0.0
 26
0.0
 36
1.0
 17
0.0
 27
0.0
 37
0.0
 40
28.25399999999999
 41
1.44404332129964
 42
50.0
 43
0.0
 44
0.0
 50
0.0
 51
0.0
 71
     0
 72
  1000
 73
     1
 74
     3
 75
     0
 76
     0
 77
     0
 78
     0
281
     0
 65
     1
110
0.0
120
0.0
130
0.0
111
1.0
121
0.0
131
0.0
112
0.0
122
1.0
132
0.0
 79
     0
146
0.0
348
2F
 60
     3
 61
     5
292
     1
282
     1
141
0.0
142
0.0
 63
   250
361
6D
  0
ENDTAB
  0
TABLE
  2
LTYPE
  5
5
330
0
100
AcDbSymbolTable
 70
     3
  0
LTYPE
  5
14
330
5
100
AcDbSymbolTableRecord
100
AcDbLinetypeTableRecord
  2
ByBlock
 70
     0
  3

 72
    65
 73
     0
 40
0.0
  0
LTYPE
  5
15
330
5
100
AcDbSymbolTableRecord
100
AcDbLinetypeTableRecord
  2
ByLayer
 70
     0
  3

 72
    65
 73
     0
 40
0.0
  0
LTYPE
  5
16
330
5
100
AcDbSymbolTableRecord
100
AcDbLinetypeTableRecord
  2
Continuous
 70
     0
  3
Solid line
 72
    65
 73
     0
 40
0.0
  0
LTYPE
  5
6E
330
5
100
AcDbSymbolTableRecord
100
AcDbLinetypeTableRecord
  2
dashed
 70
     0
  3
_____ _____ _____ _____ _____
 72
    65
 73
     2
 40
7.5
 49
6.0
 74
     4
 75
     0
340
0
 46
1.0
 50
0.0
 44
0.0
 45
0.0
 49
-1.5
 74
     4
 75
     0
340
0
 46
1.0
 50
0.0
 44
0.0
 45
0.0
  0
LTYPE
  5
6F
330
5
100
AcDbSymbolTableRecord
100
AcDbLinetypeTableRecord
  2
chain
 70
     0
  3
_____ __ _____ __ _____
 72
    65
 73
     4
 40
18.5
 49
12.0
 74
     4
 75
     0
340
0
 46
1.0
 50
0.0
 44
0.0
 45
0.0
 49
-1.5
 74
     4
 75
     0
340
0
 46
1.0
 50
0.0
 44
0.0
 45
0.0
 49
3.5
 74
     4
 75
     0
340
0
 46
1.0
 50
0.0
 44
0.0
 45
0.0
 49
-1.5
 74
     4
 75
     0
340
0
 46
1.0
 50
0.0
 44
0.0
 45
0.0
  0
ENDTAB
  0
TABLE
  2
LAYER
  5
2
330
0
100
AcDbSymbolTable
 70
     4
  0
LAYER
  5
10
330
2
100
AcDbSymbolTableRecord
100
AcDbLayerTableRecord
  2
0
 70
     0
 62
     7
  6
Continuous
370
    -3
390
F
347
46
348
0
  0
LAYER
  5
70
330
2
100
AcDbSymbolTableRecord
100
AcDbLayerTableRecord
  2
縦断図
 70
     0
 62
     7
  6
Continuous
370
    -3
390
F
347
46
348
0
  0
LAYER
  5
71
330
2
100
AcDbSymbolTableRecord
100
AcDbLayerTableRecord
  2
枠
 70
     0
 62
     7
  6
Continuous
370
    -3
390
F
347
46
348
0
  0
LAYER
  5
219
330
2
100
AcDbSymbolTableRecord
100
AcDbLayerTableRecord
  2
Defpoints
 70
     0
 62
     7
  6
Continuous
290
     0
370
    -3
390
F
347
46
348
0
  0
ENDTAB
  0
TABLE
  2
STYLE
  5
3
330
0
100
AcDbSymbolTable
 70
     3
  0
STYLE
  5
11
330
3
100
AcDbSymbolTableRecord
100
AcDbTextStyleTableRecord
  2
Standard
 70
     0
 40
0.0
 41
1.0
 50
0.0
 71
     0
 42
0.2
  3
txt
  4

  0
STYLE
  5
72
330
3
100
AcDbSymbolTableRecord
100
AcDbTextStyleTableRecord
  2
STANDARD-FC
 70
     0
 40
0.0
 41
1.0
 50
0.0
 71
     0
 42
0.2
  3
txt
  4
bigfont
  0
STYLE
  5
73
330
3
100
AcDbSymbolTableRecord
100
AcDbTextStyleTableRecord
  2
ＭＳ ゴシック
 70
     0
 40
0.0
 41
1.0
 50
0.0
 71
     0
 42
0.2
  3
msgothic.ttc
  4

1001
ACAD
1000
MS Gothic
1071
    32817
  0
ENDTAB
  0
TABLE
  2
VIEW
  5
6
330
0
100
AcDbSymbolTable
 70
     0
  0
ENDTAB
  0
TABLE
  2
UCS
  5
7
330
0
100
AcDbSymbolTable
 70
     0
  0
ENDTAB
  0
TABLE
  2
APPID
  5
9
330
0
100
AcDbSymbolTable
 70
     1
  0
APPID
  5
12
330
9
100
AcDbSymbolTableRecord
100
AcDbRegAppTableRecord
  2
ACAD
 70
     0
  0
ENDTAB
  0
TABLE
  2
DIMSTYLE
  5
A
330
0
100
AcDbSymbolTable
 70
     1
100
AcDbDimStyleTable
  0
DIMSTYLE
105
27
102
{ACAD_REACTORS
330
218
330
224
330
22F
330
23A
330
245
330
253
330
25E
330
269
330
276
330
388
330
393
102
}
330
A
100
AcDbSymbolTableRecord
100
AcDbDimStyleTableRecord
  2
Standard
 70
     0
178
     0
340
11
  0
ENDTAB
  0
TABLE
  2
BLOCK_RECORD
  5
1
330
0
100
AcDbSymbolTable
 70
    13
  0
BLOCK_RECORD
  5
1F
330
1
100
AcDbSymbolTableRecord
100
AcDbBlockTableRecord
  2
*Model_Space
340
22
 70
     0
280
     1
281
     0
  0
BLOCK_RECORD
  5
1B
330
1
100
AcDbSymbolTableRecord
100
AcDbBlockTableRecord
  2
*Paper_Space
340
1E
 70
     0
280
     1
281
     0
  0
BLOCK_RECORD
  5
23
330
1
100
AcDbSymbolTableRecord
100
AcDbBlockTableRecord
  2
*Paper_Space0
340
26
 70
     0
280
     1
281
     0
  0
BLOCK_RECORD
  5
212
330
1
100
AcDbSymbolTableRecord
100
AcDbBlockTableRecord
  2
_Open
340
0
102
{BLKREFS
331
21E
331
21F
331
229
331
22A
331
234
331
235
331
23F
331
240
331
24A
331
24B
331
258
331
259
331
263
331
264
331
26E
331
26F
331
27B
331
27C
331
38D
331
38E
331
398
331
399
102
}
 70
     0
280
     1
281
     0
  0
BLOCK_RECORD
  5
21A
330
1
100
AcDbSymbolTableRecord
100
AcDbBlockTableRecord
  2
*D2
340
0
 70
     0
280
     1
281
     0
  0
BLOCK_RECORD
  5
225
330
1
100
AcDbSymbolTableRecord
100
AcDbBlockTableRecord
  2
*D3
340
0
 70
     0
280
     1
281
     0
  0
BLOCK_RECORD
  5
230
330
1
100
AcDbSymbolTableRecord
100
AcDbBlockTableRecord
  2
*D4
340
0
 70
     0
280
     1
281
     0
  0
BLOCK_RECORD
  5
23B
330
1
100
AcDbSymbolTableRecord
100
AcDbBlockTableRecord
  2
*D5
340
0
 70
     0
280
     1
281
     0
  0
BLOCK_RECORD
  5
246
330
1
100
AcDbSymbolTableRecord
100
AcDbBlockTableRecord
  2
*D6
340
0
 70
     0
280
     1
281
     0
  0
BLOCK_RECORD
  5
254
330
1
100
AcDbSymbolTableRecord
100
AcDbBlockTableRecord
  2
*D7
340
0
 70
     0
280
     1
281
     0
  0
BLOCK_RECORD
  5
25F
330
1
100
AcDbSymbolTableRecord
100
AcDbBlockTableRecord
  2
*D8
340
0
 70
     0
280
     1
281
     0
  0
BLOCK_RECORD
  5
26A
330
1
100
AcDbSymbolTableRecord
100
AcDbBlockTableRecord
  2
*D9
340
0
 70
     0
280
     1
281
     0
  0
BLOCK_RECORD
  5
277
330
1
100
AcDbSymbolTableRecord
100
AcDbBlockTableRecord
  2
*D10
340
0
 70
     0
280
     1
281
     0
  0
BLOCK_RECORD
  5
389
330
1
100
AcDbSymbolTableRecord
100
AcDbBlockTableRecord
  2
*D11
340
0
 70
     0
280
     1
281
     0
  0
BLOCK_RECORD
  5
394
330
1
100
AcDbSymbolTableRecord
100
AcDbBlockTableRecord
  2
*D12
340
0
 70
     0
280
     1
281
     0
  0
ENDTAB
  0
ENDSEC
  0
SECTION
  2
BLOCKS
  0
BLOCK
  5
20
330
1F
100
AcDbEntity
  8
0
100
AcDbBlockBegin
  2
*Model_Space
 70
     0
 10
0.0
 20
0.0
 30
0.0
  3
*Model_Space
  1

  0
ENDBLK
  5
21
330
1F
100
AcDbEntity
  8
0
100
AcDbBlockEnd
  0
BLOCK
  5
1C
330
1B
100
AcDbEntity
 67
     1
  8
0
100
AcDbBlockBegin
  2
*Paper_Space
 70
     0
 10
0.0
 20
0.0
 30
0.0
  3
*Paper_Space
  1

  0
ENDBLK
  5
1D
330
1B
100
AcDbEntity
 67
     1
  8
0
100
AcDbBlockEnd
  0
BLOCK
  5
24
330
23
100
AcDbEntity
  8
0
100
AcDbBlockBegin
  2
*Paper_Space0
 70
     0
 10
0.0
 20
0.0
 30
0.0
  3
*Paper_Space0
  1

  0
ENDBLK
  5
25
330
23
100
AcDbEntity
  8
0
100
AcDbBlockEnd
  0
BLOCK
  5
216
330
212
100
AcDbEntity
  8
0
100
AcDbBlockBegin
  2
_Open
 70
     0
 10
0.0
 20
0.0
 30
0.0
  3
_Open
  1

  0
LINE
  5
213
330
212
100
AcDbEntity
  8
0
 62
     0
100
AcDbLine
 10
-1.0
 20
0.1666666666666667
 30
0.0
 11
0.0
 21
0.0
 31
0.0
  0
LINE
  5
214
330
212
100
AcDbEntity
  8
0
 62
     0
100
AcDbLine
 10
-1.0
 20
-0.1666666666666667
 30
0.0
 11
0.0
 21
0.0
 31
0.0
  0
LINE
  5
215
330
212
100
AcDbEntity
  8
0
 62
     0
100
AcDbLine
 10
0.0
 20
0.0
 30
0.0
 11
-1.0
 21
0.0
 31
0.0
  0
ENDBLK
  5
217
330
212
100
AcDbEntity
  8
0
100
AcDbBlockEnd
  0
BLOCK
  5
21B
330
21A
100
AcDbEntity
  8
0
100
AcDbBlockBegin
  2
*D2
 70
     1
 10
0.0
 20
0.0
 30
0.0
  3
*D2
  1

  0
LINE
  5
21D
330
21A
100
AcDbEntity
  8
枠
  6
Continuous
 62
     7
370
    -2
100
AcDbLine
 10
-12.50415017727466
 20
100.1649359794484
 30
0.0
 11
-12.50415017727466
 21
106.7065506617083
 31
0.0
  0
INSERT
  5
21E
330
21A
100
AcDbEntity
  8
枠
 62
     7
370
    -2
100
AcDbBlockReference
  2
_Open
 10
-12.50415017727466
 20
100.0649359794484
 30
0.0
 41
0.1000000000000014
 42
0.1000000000000014
 43
0.1000000000000014
 50
270.0
  0
INSERT
  5
21F
330
21A
100
AcDbEntity
  8
枠
 62
     7
370
    -2
100
AcDbBlockReference
  2
_Open
 10
-12.50415017727466
 20
106.8065506617083
 30
0.0
 41
0.1000000000000014
 42
0.1000000000000014
 43
0.1000000000000014
 50
90.0
  0
MTEXT
  5
220
330
21A
100
AcDbEntity
  8
枠
 62
     7
370
    13
100
AcDbMText
 10
-12.67915017727466
 20
103.4357433205784
 30
0.0
 40
0.1915708812260526
 41
0.0
 46
0.0
 71
     5
 72
     1
  1
\A1;6742
  7
ＭＳ ゴシック
 11
6.123233995736766E-17
 21
1.0
 31
0.0
 73
     1
 44
1.0
  0
POINT
  5
221
330
21A
100
AcDbEntity
  8
Defpoints
 62
     0
100
AcDbPoint
 10
-12.50405017727466
 20
100.0649359794484
 30
0.0
  0
POINT
  5
222
330
21A
100
AcDbEntity
  8
Defpoints
 62
     0
100
AcDbPoint
 10
-12.50405017727466
 20
106.8065506617083
 30
0.0
  0
POINT
  5
223
330
21A
100
AcDbEntity
  8
Defpoints
 62
     0
100
AcDbPoint
 10
-12.50415017727466
 20
106.8065506617083
 30
0.0
  0
ENDBLK
  5
21C
330
21A
100
AcDbEntity
  8
0
100
AcDbBlockEnd
  0
BLOCK
  5
226
330
225
100
AcDbEntity
  8
0
100
AcDbBlockBegin
  2
*D3
 70
     1
 10
0.0
 20
0.0
 30
0.0
  3
*D3
  1

  0
LINE
  5
228
330
225
100
AcDbEntity
  8
枠
  6
Continuous
 62
     7
370
    -2
100
AcDbLine
 10
-12.50415017727466
 20
106.9065506617083
 30
0.0
 11
-12.50415017727466
 21
113.7649359794484
 31
0.0
  0
INSERT
  5
229
330
225
100
AcDbEntity
  8
枠
 62
     7
370
    -2
100
AcDbBlockReference
  2
_Open
 10
-12.50415017727466
 20
106.8065506617083
 30
0.0
 41
0.1000000000000014
 42
0.1000000000000014
 43
0.1000000000000014
 50
270.0
  0
INSERT
  5
22A
330
225
100
AcDbEntity
  8
枠
 62
     7
370
    -2
100
AcDbBlockReference
  2
_Open
 10
-12.50415017727466
 20
113.8649359794484
 30
0.0
 41
0.1000000000000014
 42
0.1000000000000014
 43
0.1000000000000014
 50
90.0
  0
MTEXT
  5
22B
330
225
100
AcDbEntity
  8
枠
 62
     7
370
    13
100
AcDbMText
 10
-12.67915017727466
 20
110.3357433205784
 30
0.0
 40
0.1915708812260526
 41
0.0
 46
0.0
 71
     5
 72
     1
  1
\A1;7058
  7
ＭＳ ゴシック
 11
6.123233995736766E-17
 21
1.0
 31
0.0
 73
     1
 44
1.0
  0
POINT
  5
22C
330
225
100
AcDbEntity
  8
Defpoints
 62
     0
100
AcDbPoint
 10
-12.50405017727466
 20
106.8065506617083
 30
0.0
  0
POINT
  5
22D
330
225
100
AcDbEntity
  8
Defpoints
 62
     0
100
AcDbPoint
 10
-12.50405017727466
 20
113.8649359794484
 30
0.0
  0
POINT
  5
22E
330
225
100
AcDbEntity
  8
Defpoints
 62
     0
100
AcDbPoint
 10
-12.50415017727466
 20
113.8649359794484
 30
0.0
  0
ENDBLK
  5
227
330
225
100
AcDbEntity
  8
0
100
AcDbBlockEnd
  0
BLOCK
  5
231
330
230
100
AcDbEntity
  8
0
100
AcDbBlockBegin
  2
*D4
 70
     1
 10
0.0
 20
0.0
 30
0.0
  3
*D4
  1

  0
LINE
  5
233
330
230
100
AcDbEntity
  8
枠
  6
Continuous
 62
     7
370
    -2
100
AcDbLine
 10
-12.50415017727466
 20
113.9649359794484
 30
0.0
 11
-12.50415017727466
 21
114.4749359794484
 31
0.0
  0
INSERT
  5
234
330
230
100
AcDbEntity
  8
枠
 62
     7
370
    -2
100
AcDbBlockReference
  2
_Open
 10
-12.50415017727466
 20
113.8649359794484
 30
0.0
 41
0.1000000000000014
 42
0.1000000000000014
 43
0.1000000000000014
 50
270.0
  0
INSERT
  5
235
330
230
100
AcDbEntity
  8
枠
 62
     7
370
    -2
100
AcDbBlockReference
  2
_Open
 10
-12.50415017727466
 20
114.5749359794484
 30
0.0
 41
0.1000000000000014
 42
0.1000000000000014
 43
0.1000000000000014
 50
90.0
  0
MTEXT
  5
236
330
230
100
AcDbEntity
  8
枠
 62
     7
370
    13
100
AcDbMText
 10
-12.67915017727466
 20
114.2199359794484
 30
0.0
 40
0.1915708812260526
 41
0.0
 46
0.0
 71
     5
 72
     1
  1
\A1;710
  7
ＭＳ ゴシック
 11
6.123233995736766E-17
 21
1.0
 31
0.0
 73
     1
 44
1.0
  0
POINT
  5
237
330
230
100
AcDbEntity
  8
Defpoints
 62
     0
100
AcDbPoint
 10
-12.50405017727466
 20
113.8649359794484
 30
0.0
  0
POINT
  5
238
330
230
100
AcDbEntity
  8
Defpoints
 62
     0
100
AcDbPoint
 10
-12.50405017727466
 20
114.5749359794484
 30
0.0
  0
POINT
  5
239
330
230
100
AcDbEntity
  8
Defpoints
 62
     0
100
AcDbPoint
 10
-12.50415017727466
 20
114.5749359794484
 30
0.0
  0
ENDBLK
  5
232
330
230
100
AcDbEntity
  8
0
100
AcDbBlockEnd
  0
BLOCK
  5
23C
330
23B
100
AcDbEntity
  8
0
100
AcDbBlockBegin
  2
*D5
 70
     1
 10
0.0
 20
0.0
 30
0.0
  3
*D5
  1

  0
LINE
  5
23E
330
23B
100
AcDbEntity
  8
枠
  6
Continuous
 62
     7
370
    -2
100
AcDbLine
 10
-12.50415017727466
 20
114.6749359794484
 30
0.0
 11
-12.50415017727466
 21
115.6449359794484
 31
0.0
  0
INSERT
  5
23F
330
23B
100
AcDbEntity
  8
枠
 62
     7
370
    -2
100
AcDbBlockReference
  2
_Open
 10
-12.50415017727466
 20
114.5749359794484
 30
0.0
 41
0.1000000000000014
 42
0.1000000000000014
 43
0.1000000000000014
 50
270.0
  0
INSERT
  5
240
330
23B
100
AcDbEntity
  8
枠
 62
     7
370
    -2
100
AcDbBlockReference
  2
_Open
 10
-12.50415017727466
 20
115.7449359794484
 30
0.0
 41
0.1000000000000014
 42
0.1000000000000014
 43
0.1000000000000014
 50
90.0
  0
MTEXT
  5
241
330
23B
100
AcDbEntity
  8
枠
 62
     7
370
    13
100
AcDbMText
 10
-12.67915017727466
 20
115.1599359794484
 30
0.0
 40
0.1915708812260526
 41
0.0
 46
0.0
 71
     5
 72
     1
  1
\A1;1170
  7
ＭＳ ゴシック
 11
6.123233995736766E-17
 21
1.0
 31
0.0
 73
     1
 44
1.0
  0
POINT
  5
242
330
23B
100
AcDbEntity
  8
Defpoints
 62
     0
100
AcDbPoint
 10
-12.50405017727466
 20
114.5749359794484
 30
0.0
  0
POINT
  5
243
330
23B
100
AcDbEntity
  8
Defpoints
 62
     0
100
AcDbPoint
 10
-12.50405017727466
 20
115.7449359794484
 30
0.0
  0
POINT
  5
244
330
23B
100
AcDbEntity
  8
Defpoints
 62
     0
100
AcDbPoint
 10
-12.50415017727466
 20
115.7449359794484
 30
0.0
  0
ENDBLK
  5
23D
330
23B
100
AcDbEntity
  8
0
100
AcDbBlockEnd
  0
BLOCK
  5
247
330
246
100
AcDbEntity
  8
0
100
AcDbBlockBegin
  2
*D6
 70
     1
 10
0.0
 20
0.0
 30
0.0
  3
*D6
  1

  0
LINE
  5
249
330
246
100
AcDbEntity
  8
枠
  6
Continuous
 62
     7
370
    -2
100
AcDbLine
 10
-12.50415017727466
 20
115.8449359794484
 30
0.0
 11
-12.50415017727466
 21
116.3416178477671
 31
0.0
  0
INSERT
  5
24A
330
246
100
AcDbEntity
  8
枠
 62
     7
370
    -2
100
AcDbBlockReference
  2
_Open
 10
-12.50415017727466
 20
115.7449359794484
 30
0.0
 41
0.1000000000000014
 42
0.1000000000000014
 43
0.1000000000000014
 50
270.0
  0
INSERT
  5
24B
330
246
100
AcDbEntity
  8
枠
 62
     7
370
    -2
100
AcDbBlockReference
  2
_Open
 10
-12.50415017727466
 20
116.4416178477671
 30
0.0
 41
0.1000000000000014
 42
0.1000000000000014
 43
0.1000000000000014
 50
90.0
  0
MTEXT
  5
24C
330
246
100
AcDbEntity
  8
枠
 62
     7
370
    13
100
AcDbMText
 10
-12.67915017727466
 20
116.0932769136077
 30
0.0
 40
0.1915708812260526
 41
0.0
 46
0.0
 71
     5
 72
     1
  1
\A1;697
  7
ＭＳ ゴシック
 11
6.123233995736766E-17
 21
1.0
 31
0.0
 73
     1
 44
1.0
  0
POINT
  5
24D
330
246
100
AcDbEntity
  8
Defpoints
 62
     0
100
AcDbPoint
 10
-12.50405017727466
 20
115.7449359794484
 30
0.0
  0
POINT
  5
24E
330
246
100
AcDbEntity
  8
Defpoints
 62
     0
100
AcDbPoint
 10
-12.50405017727466
 20
116.4416178477671
 30
0.0
  0
POINT
  5
24F
330
246
100
AcDbEntity
  8
Defpoints
 62
     0
100
AcDbPoint
 10
-12.50415017727466
 20
116.4416178477671
 30
0.0
  0
ENDBLK
  5
248
330
246
100
AcDbEntity
  8
0
100
AcDbBlockEnd
  0
BLOCK
  5
255
330
254
100
AcDbEntity
  8
0
100
AcDbBlockBegin
  2
*D7
 70
     1
 10
0.0
 20
0.0
 30
0.0
  3
*D7
  1

  0
LINE
  5
257
330
254
100
AcDbEntity
  8
枠
  6
Continuous
 62
     7
370
    -2
100
AcDbLine
 10
12.21846563153784
 20
100.1649359794484
 30
0.0
 11
12.21846563153784
 21
106.7065506617083
 31
0.0
  0
INSERT
  5
258
330
254
100
AcDbEntity
  8
枠
 62
     7
370
    -2
100
AcDbBlockReference
  2
_Open
 10
12.21846563153784
 20
100.0649359794484
 30
0.0
 41
0.1000000000000014
 42
0.1000000000000014
 43
0.1000000000000014
 50
270.0
  0
INSERT
  5
259
330
254
100
AcDbEntity
  8
枠
 62
     7
370
    -2
100
AcDbBlockReference
  2
_Open
 10
12.21846563153784
 20
106.8065506617083
 30
0.0
 41
0.1000000000000014
 42
0.1000000000000014
 43
0.1000000000000014
 50
90.0
  0
MTEXT
  5
25A
330
254
100
AcDbEntity
  8
枠
 62
     7
370
    13
100
AcDbMText
 10
12.04346563153784
 20
103.4357433205784
 30
0.0
 40
0.1915708812260526
 41
0.0
 46
0.0
 71
     5
 72
     1
  1
\A1;6742
  7
ＭＳ ゴシック
 11
6.123233995736766E-17
 21
1.0
 31
0.0
 73
     1
 44
1.0
  0
POINT
  5
25B
330
254
100
AcDbEntity
  8
Defpoints
 62
     0
100
AcDbPoint
 10
12.21856563153784
 20
100.0649359794484
 30
0.0
  0
POINT
  5
25C
330
254
100
AcDbEntity
  8
Defpoints
 62
     0
100
AcDbPoint
 10
12.21856563153784
 20
106.8065506617083
 30
0.0
  0
POINT
  5
25D
330
254
100
AcDbEntity
  8
Defpoints
 62
     0
100
AcDbPoint
 10
12.21846563153784
 20
106.8065506617083
 30
0.0
  0
ENDBLK
  5
256
330
254
100
AcDbEntity
  8
0
100
AcDbBlockEnd
  0
BLOCK
  5
260
330
25F
100
AcDbEntity
  8
0
100
AcDbBlockBegin
  2
*D8
 70
     1
 10
0.0
 20
0.0
 30
0.0
  3
*D8
  1

  0
LINE
  5
262
330
25F
100
AcDbEntity
  8
枠
  6
Continuous
 62
     7
370
    -2
100
AcDbLine
 10
12.21846563153784
 20
106.9065506617083
 30
0.0
 11
12.21846563153784
 21
114.4749359794484
 31
0.0
  0
INSERT
  5
263
330
25F
100
AcDbEntity
  8
枠
 62
     7
370
    -2
100
AcDbBlockReference
  2
_Open
 10
12.21846563153784
 20
106.8065506617083
 30
0.0
 41
0.1000000000000014
 42
0.1000000000000014
 43
0.1000000000000014
 50
270.0
  0
INSERT
  5
264
330
25F
100
AcDbEntity
  8
枠
 62
     7
370
    -2
100
AcDbBlockReference
  2
_Open
 10
12.21846563153784
 20
114.5749359794484
 30
0.0
 41
0.1000000000000014
 42
0.1000000000000014
 43
0.1000000000000014
 50
90.0
  0
MTEXT
  5
265
330
25F
100
AcDbEntity
  8
枠
 62
     7
370
    13
100
AcDbMText
 10
12.04346563153784
 20
110.6907433205784
 30
0.0
 40
0.1915708812260526
 41
0.0
 46
0.0
 71
     5
 72
     1
  1
\A1;7768
  7
ＭＳ ゴシック
 11
6.123233995736766E-17
 21
1.0
 31
0.0
 73
     1
 44
1.0
  0
POINT
  5
266
330
25F
100
AcDbEntity
  8
Defpoints
 62
     0
100
AcDbPoint
 10
12.21856563153784
 20
106.8065506617083
 30
0.0
  0
POINT
  5
267
330
25F
100
AcDbEntity
  8
Defpoints
 62
     0
100
AcDbPoint
 10
12.21856563153784
 20
114.5749359794484
 30
0.0
  0
POINT
  5
268
330
25F
100
AcDbEntity
  8
Defpoints
 62
     0
100
AcDbPoint
 10
12.21846563153784
 20
114.5749359794484
 30
0.0
  0
ENDBLK
  5
261
330
25F
100
AcDbEntity
  8
0
100
AcDbBlockEnd
  0
BLOCK
  5
26B
330
26A
100
AcDbEntity
  8
0
100
AcDbBlockBegin
  2
*D9
 70
     1
 10
0.0
 20
0.0
 30
0.0
  3
*D9
  1

  0
LINE
  5
26D
330
26A
100
AcDbEntity
  8
枠
  6
Continuous
 62
     7
370
    -2
100
AcDbLine
 10
-13.52281812291919
 20
116.3416178477671
 30
0.0
 11
-13.52281812291919
 21
100.1649359794484
 31
0.0
  0
INSERT
  5
26E
330
26A
100
AcDbEntity
  8
枠
 62
     7
370
    -2
100
AcDbBlockReference
  2
_Open
 10
-13.52281812291919
 20
116.4416178477671
 30
0.0
 41
0.1000000000000014
 42
0.1000000000000014
 43
0.1000000000000014
 50
89.99999999999999
  0
INSERT
  5
26F
330
26A
100
AcDbEntity
  8
枠
 62
     7
370
    -2
100
AcDbBlockReference
  2
_Open
 10
-13.52281812291919
 20
100.0649359794484
 30
0.0
 41
0.1000000000000014
 42
0.1000000000000014
 43
0.1000000000000014
 50
270.0
  0
MTEXT
  5
270
330
26A
100
AcDbEntity
  8
枠
 62
     7
370
    13
100
AcDbMText
 10
-13.69781812291919
 20
108.2532769136077
 30
0.0
 40
0.1915708812260526
 41
0.0
 46
0.0
 71
     5
 72
     1
  1
\A1;16377
  7
ＭＳ ゴシック
 11
6.123233995736766E-17
 21
1.0
 31
0.0
 73
     1
 44
1.0
  0
POINT
  5
271
330
26A
100
AcDbEntity
  8
Defpoints
 62
     0
100
AcDbPoint
 10
-13.52291812291919
 20
116.4416178477671
 30
0.0
  0
POINT
  5
272
330
26A
100
AcDbEntity
  8
Defpoints
 62
     0
100
AcDbPoint
 10
-13.52291812291919
 20
100.0649359794484
 30
0.0
  0
POINT
  5
273
330
26A
100
AcDbEntity
  8
Defpoints
 62
     0
100
AcDbPoint
 10
-13.52281812291919
 20
100.0649359794484
 30
0.0
  0
ENDBLK
  5
26C
330
26A
100
AcDbEntity
  8
0
100
AcDbBlockEnd
  0
BLOCK
  5
278
330
277
100
AcDbEntity
  8
0
100
AcDbBlockBegin
  2
*D10
 70
     1
 10
0.0
 20
0.0
 30
0.0
  3
*D10
  1

  0
LINE
  5
27A
330
277
100
AcDbEntity
  8
枠
  6
Continuous
 62
     7
370
    -2
100
AcDbLine
 10
-7.438703840850895
 20
117.8385186414738
 30
0.0
 11
2.876296159149103
 21
117.8385186414738
 31
0.0
  0
INSERT
  5
27B
330
277
100
AcDbEntity
  8
枠
 62
     7
370
    -2
100
AcDbBlockReference
  2
_Open
 10
-7.538703840850896
 20
117.8385186414738
 30
0.0
 41
0.1000000000000014
 42
0.1000000000000014
 43
0.1000000000000014
 50
180.0
  0
INSERT
  5
27C
330
277
100
AcDbEntity
  8
枠
 62
     7
370
    -2
100
AcDbBlockReference
  2
_Open
 10
2.976296159149104
 20
117.8385186414738
 30
0.0
 41
0.1000000000000014
 42
0.1000000000000014
 43
0.1000000000000014
  0
MTEXT
  5
27D
330
277
100
AcDbEntity
  8
枠
 62
     7
370
    13
100
AcDbMText
 10
-2.281203840850896
 20
118.0135186414738
 30
0.0
 40
0.1915708812260526
 41
0.0
 46
0.0
 71
     5
 72
     1
  1
\A1;10515
  7
ＭＳ ゴシック
 73
     1
 44
1.0
  0
POINT
  5
27E
330
277
100
AcDbEntity
  8
Defpoints
 62
     0
100
AcDbPoint
 10
-7.538703840850896
 20
117.8384186414738
 30
0.0
  0
POINT
  5
27F
330
277
100
AcDbEntity
  8
Defpoints
 62
     0
100
AcDbPoint
 10
2.976296159149104
 20
117.8384186414738
 30
0.0
  0
POINT
  5
280
330
277
100
AcDbEntity
  8
Defpoints
 62
     0
100
AcDbPoint
 10
2.976296159149104
 20
117.8385186414738
 30
0.0
  0
ENDBLK
  5
279
330
277
100
AcDbEntity
  8
0
100
AcDbBlockEnd
  0
BLOCK
  5
38A
330
389
100
AcDbEntity
  8
0
100
AcDbBlockBegin
  2
*D11
 70
     1
 10
0.0
 20
0.0
 30
0.0
  3
*D11
  1

  0
LINE
  5
38C
330
389
100
AcDbEntity
  8
縦断図
  6
Continuous
 62
     1
370
    -2
100
AcDbLine
 10
-6.069736906263642
 20
104.3757629555488
 30
0.0
 11
-6.069736906263643
 21
100.0954559331299
 31
0.0
  0
INSERT
  5
38D
330
389
100
AcDbEntity
  8
縦断図
 62
     1
370
    -2
100
AcDbBlockReference
  2
_Open
 10
-6.069736906263642
 20
104.4257629555488
 30
0.0
 41
0.0500000000000007
 42
0.0500000000000007
 43
0.0500000000000007
 50
89.99999999999999
  0
INSERT
  5
38E
330
389
100
AcDbEntity
  8
縦断図
 62
     1
370
    -2
100
AcDbBlockReference
  2
_Open
 10
-6.069736906263643
 20
100.0454559331299
 30
0.0
 41
0.0500000000000007
 42
0.0500000000000007
 43
0.0500000000000007
 50
270.0
  0
MTEXT
  5
38F
330
389
100
AcDbEntity
  8
縦断図
 62
     1
370
    13
100
AcDbMText
 10
-6.244736906263642
 20
102.2356094443393
 30
0.0
 40
0.1915708812260526
 41
0.0
 46
0.0
 71
     5
 72
     1
  1
\A1;4380
  7
ＭＳ ゴシック
 11
6.123233995736766E-17
 21
1.0
 31
0.0
 73
     1
 44
1.0
  0
POINT
  5
390
330
389
100
AcDbEntity
  8
Defpoints
 62
     0
100
AcDbPoint
 10
-6.069836906263642
 20
104.4257629555488
 30
0.0
  0
POINT
  5
391
330
389
100
AcDbEntity
  8
Defpoints
 62
     0
100
AcDbPoint
 10
-6.069836906263642
 20
100.0454559331299
 30
0.0
  0
POINT
  5
392
330
389
100
AcDbEntity
  8
Defpoints
 62
     0
100
AcDbPoint
 10
-6.069736906263643
 20
100.0454559331299
 30
0.0
  0
ENDBLK
  5
38B
330
389
100
AcDbEntity
  8
0
100
AcDbBlockEnd
  0
BLOCK
  5
395
330
394
100
AcDbEntity
  8
0
100
AcDbBlockBegin
  2
*D12
 70
     1
 10
0.0
 20
0.0
 30
0.0
  3
*D12
  1

  0
LINE
  5
397
330
394
100
AcDbEntity
  8
縦断図
  6
Continuous
 62
     1
370
    -2
100
AcDbLine
 10
-2.185875668945662
 20
105.6461329367979
 30
0.0
 11
-2.185875668945663
 21
100.1015163721327
 31
0.0
  0
INSERT
  5
398
330
394
100
AcDbEntity
  8
縦断図
 62
     1
370
    -2
100
AcDbBlockReference
  2
_Open
 10
-2.185875668945662
 20
105.6961329367979
 30
0.0
 41
0.0500000000000007
 42
0.0500000000000007
 43
0.0500000000000007
 50
90.0
  0
INSERT
  5
399
330
394
100
AcDbEntity
  8
縦断図
 62
     1
370
    -2
100
AcDbBlockReference
  2
_Open
 10
-2.185875668945663
 20
100.0515163721327
 30
0.0
 41
0.0500000000000007
 42
0.0500000000000007
 43
0.0500000000000007
 50
270.0
  0
MTEXT
  5
39A
330
394
100
AcDbEntity
  8
縦断図
 62
     1
370
    13
100
AcDbMText
 10
-2.360875668945663
 20
102.8738246544653
 30
0.0
 40
0.1915708812260526
 41
0.0
 46
0.0
 71
     5
 72
     1
  1
\A1;5645
  7
ＭＳ ゴシック
 11
6.123233995736766E-17
 21
1.0
 31
0.0
 73
     1
 44
1.0
  0
POINT
  5
39B
330
394
100
AcDbEntity
  8
Defpoints
 62
     0
100
AcDbPoint
 10
-2.185975668945662
 20
105.6961329367979
 30
0.0
  0
POINT
  5
39C
330
394
100
AcDbEntity
  8
Defpoints
 62
     0
100
AcDbPoint
 10
-2.185975668945662
 20
100.0515163721327
 30
0.0
  0
POINT
  5
39D
330
394
100
AcDbEntity
  8
Defpoints
 62
     0
100
AcDbPoint
 10
-2.185875668945663
 20
100.0515163721327
 30
0.0
  0
ENDBLK
  5
396
330
394
100
AcDbEntity
  8
0
100
AcDbBlockEnd
  0
ENDSEC
  0
SECTION
  2
ENTITIES
  0
LINE
  5
74
330
1F
100
AcDbEntity
  8
縦断図
  6
Continuous
 62
     7
370
    13
100
AcDbLine
 10
4.466735917246478
 20
100.0649359794484
 30
0.0
 11
5.29428505524924
 21
100.0649359794484
 31
0.0
  0
LINE
  5
75
330
1F
100
AcDbEntity
  8
縦断図
  6
Continuous
 62
     7
370
    13
100
AcDbLine
 10
-6.328703840850894
 20
108.2249359794484
 30
0.0
 11
-7.538703840850896
 21
108.2249359794484
 31
0.0
  0
LINE
  5
76
330
1F
100
AcDbEntity
  8
縦断図
  6
Continuous
 62
     7
370
    13
100
AcDbLine
 10
-6.328703840850894
 20
107.9349359794484
 30
0.0
 11
-6.328703840850894
 21
108.2249359794484
 31
0.0
  0
LINE
  5
77
330
1F
100
AcDbEntity
  8
縦断図
  6
Continuous
 62
     7
370
    13
100
AcDbLine
 10
-6.981703840850903
 20
107.9349359794484
 30
0.0
 11
-6.328703840850894
 21
107.9349359794484
 31
0.0
  0
LINE
  5
78
330
1F
100
AcDbEntity
  8
縦断図
  6
Continuous
 62
     7
370
    13
100
AcDbLine
 10
-7.538703840850896
 20
105.6449359794484
 30
0.0
 11
-7.538703840850896
 21
106.3464359794484
 31
0.0
  0
LINE
  5
79
330
1F
100
AcDbEntity
  8
縦断図
  6
Continuous
 62
     7
370
    13
100
AcDbLine
 10
-6.328703840850894
 20
105.6449359794484
 30
0.0
 11
-7.538703840850896
 21
105.6449359794484
 31
0.0
  0
LINE
  5
7A
330
1F
100
AcDbEntity
  8
縦断図
  6
Continuous
 62
     7
370
    13
100
AcDbLine
 10
-6.328703840850894
 20
105.3649359794484
 30
0.0
 11
-6.328703840850894
 21
105.6449359794484
 31
0.0
  0
LINE
  5
7B
330
1F
100
AcDbEntity
  8
縦断図
  6
Continuous
 62
     7
370
    13
100
AcDbLine
 10
-6.328703840850894
 20
105.3149359794484
 30
0.0
 11
-6.328703840850894
 21
105.3649359794484
 31
0.0
  0
LINE
  5
7C
330
1F
100
AcDbEntity
  8
縦断図
  6
Continuous
 62
     7
370
    13
100
AcDbLine
 10
-6.328703840850894
 20
104.5549359794484
 30
0.0
 11
-6.328703840850894
 21
105.3149359794484
 31
0.0
  0
LINE
  5
7D
330
1F
100
AcDbEntity
  8
縦断図
  6
Continuous
 62
     7
370
    13
100
AcDbLine
 10
-6.423703840850893
 20
104.0249359794484
 30
0.0
 11
-6.328703840850894
 21
104.5549359794484
 31
0.0
  0
LINE
  5
7E
330
1F
100
AcDbEntity
  8
縦断図
  6
Continuous
 62
     7
370
    13
100
AcDbLine
 10
-6.558703840850896
 20
103.2449359794484
 30
0.0
 11
-6.423703840850896
 21
104.0249359794484
 31
0.0
  0
LINE
  5
7F
330
1F
100
AcDbEntity
  8
縦断図
  6
Continuous
 62
     7
370
    13
100
AcDbLine
 10
-6.674703840850896
 20
102.5649359794484
 30
0.0
 11
-6.558703840850896
 21
103.2449359794484
 31
0.0
  0
LINE
  5
80
330
1F
100
AcDbEntity
  8
縦断図
  6
Continuous
 62
     7
370
    13
100
AcDbLine
 10
-6.681703840850894
 20
101.6649359794484
 30
0.0
 11
-6.674703840850892
 21
102.5649359794484
 31
0.0
  0
LINE
  5
81
330
1F
100
AcDbEntity
  8
縦断図
  6
Continuous
 62
     7
370
    13
100
AcDbLine
 10
-6.677703840850896
 20
100.3749359794484
 30
0.0
 11
-6.681703840850897
 21
101.6649359794484
 31
0.0
  0
LINE
  5
82
330
1F
100
AcDbEntity
  8
縦断図
  6
Continuous
 62
     7
370
    13
100
AcDbLine
 10
-6.678703840850893
 20
100.0449359794484
 30
0.0
 11
-6.677703840850892
 21
100.3749359794484
 31
0.0
  0
LINE
  5
83
330
1F
100
AcDbEntity
  8
縦断図
  6
Continuous
 62
     7
370
    13
100
AcDbLine
 10
-6.326703840850897
 20
100.0449359794484
 30
0.0
 11
-6.678703840850893
 21
100.0449359794484
 31
0.0
  0
LINE
  5
84
330
1F
100
AcDbEntity
  8
縦断図
  6
Continuous
 62
     7
370
    13
100
AcDbLine
 10
0.0262961591491084
 20
100.0549359794484
 30
0.0
 11
-6.326703840850897
 21
100.0449359794484
 31
0.0
  0
LINE
  5
85
330
1F
100
AcDbEntity
  8
縦断図
  6
Continuous
 62
     7
370
    13
100
AcDbLine
 10
4.009296159149105
 20
100.0649359794484
 30
0.0
 11
0.0262961591491084
 21
100.0549359794484
 31
0.0
  0
LINE
  5
86
330
1F
100
AcDbEntity
  8
縦断図
  6
Continuous
 62
     7
370
    13
100
AcDbLine
 10
0.9612961591491036
 20
113.8649359794484
 30
100.0
 11
-7.538703840850896
 21
113.8649359794484
 31
0.0
  0
TEXT
  5
87
330
1F
100
AcDbEntity
  8
縦断図
  6
Continuous
 62
     7
370
    13
100
AcDbText
 10
-9.950605330975815
 20
113.9296073794012
 30
0.0
 40
0.1915708812260526
  1
下段スノコ
  7
ＭＳ ゴシック
 11
-9.950605330975815
 21
113.8945996394297
 31
0.0
100
AcDbText
 73
     1
  0
POLYLINE
  5
88
330
1F
100
AcDbEntity
  8
縦断図
  6
Continuous
 62
     7
370
    13
100
AcDb3dPolyline
 66
     1
 10
0.0
 20
0.0
 30
0.0
 70
     8
  0
VERTEX
  5
89
330
88
100
AcDbEntity
  8
縦断図
  6
Continuous
 62
     7
100
AcDbVertex
100
AcDb3dPolylineVertex
 10
-7.538703840850896
 20
113.9149359794484
 30
0.0
 70
    32
  0
VERTEX
  5
8A
330
88
100
AcDbEntity
  8
縦断図
  6
Continuous
 62
     7
100
AcDbVertex
100
AcDb3dPolylineVertex
 10
-7.538703840850896
 20
114.5149359794484
 30
0.0
 70
    32
  0
VERTEX
  5
8B
330
88
100
AcDbEntity
  8
縦断図
  6
Continuous
 62
     7
100
AcDbVertex
100
AcDb3dPolylineVertex
 10
-6.988703840850899
 20
114.5149359794484
 30
0.0
 70
    32
  0
VERTEX
  5
8C
330
88
100
AcDbEntity
  8
縦断図
  6
Continuous
 62
     7
100
AcDbVertex
100
AcDb3dPolylineVertex
 10
-6.988703840850899
 20
115.7449359794484
 30
0.0
 70
    32
  0
SEQEND
  5
8D
330
88
100
AcDbEntity
  8
縦断図
  6
Continuous
 62
     7
370
    13
  0
LINE
  5
8E
330
1F
100
AcDbEntity
  8
縦断図
  6
Continuous
 62
     7
370
    13
100
AcDbLine
 10
-5.707703840850897
 20
113.9149359794484
 30
0.0
 11
-5.707703840850897
 21
113.0449275000453
 31
0.0
  0
LINE
  5
8F
330
1F
100
AcDbEntity
  8
縦断図
  6
Continuous
 62
     7
370
    13
100
AcDbLine
 10
-5.514703840850895
 20
113.9149359794484
 30
0.0
 11
-5.514703840850895
 21
113.0562458015808
 31
0.0
  0
LINE
  5
90
330
1F
100
AcDbEntity
  8
縦断図
  6
Continuous
 62
     7
370
    13
100
AcDbLine
 10
-5.313703840850897
 20
113.9149359794484
 30
0.0
 11
-5.313703840850897
 21
113.0065467453504
 31
0.0
  0
LINE
  5
91
330
1F
100
AcDbEntity
  8
縦断図
  6
Continuous
 62
     7
370
    13
100
AcDbLine
 10
-4.977703840850889
 20
113.9149359794484
 30
0.0
 11
-4.977703840850895
 21
109.3270631879219
 31
0.0
  0
LINE
  5
92
330
1F
100
AcDbEntity
  8
縦断図
  6
Continuous
 62
     7
370
    13
100
AcDbLine
 10
-4.714703840850895
 20
113.9149359794484
 30
0.0
 11
-4.714703840850895
 21
113.0474906173413
 31
0.0
  0
LINE
  5
93
330
1F
100
AcDbEntity
  8
縦断図
  6
Continuous
 62
     7
370
    13
100
AcDbLine
 10
-3.685703840850898
 20
113.9149359794484
 30
0.0
 11
-3.685703840850898
 21
112.979110288127
 31
0.0
  0
LINE
  5
94
330
1F
100
AcDbEntity
  8
縦断図
  6
Continuous
 62
     7
370
    13
100
AcDbLine
 10
-3.388703840850891
 20
113.9149359794484
 30
0.0
 11
-3.388703840850891
 21
108.1293241029998
 31
0.0
  0
LINE
  5
95
330
1F
100
AcDbEntity
  8
縦断図
  6
Continuous
 62
     7
370
    13
100
AcDbLine
 10
-2.952703840850891
 20
113.9149359794484
 30
0.0
 11
-2.952703840850891
 21
108.2502599081552
 31
0.0
  0
LINE
  5
96
330
1F
100
AcDbEntity
  8
縦断図
  6
Continuous
 62
     7
370
    13
100
AcDbLine
 10
-2.727703840850893
 20
113.9149359794484
 30
0.0
 11
-2.727703840850893
 21
113.1006169746913
 31
0.0
  0
LINE
  5
97
330
1F
100
AcDbEntity
  8
縦断図
  6
Continuous
 62
     7
370
    13
100
AcDbLine
 10
-2.224703840850893
 20
113.9149359794484
 30
0.0
 11
-2.224703840850893
 21
106.8099734987139
 31
0.0
  0
LINE
  5
98
330
1F
100
AcDbEntity
  8
縦断図
  6
Continuous
 62
     7
370
    13
100
AcDbLine
 10
-1.766703840850891
 20
113.9149359794484
 30
0.0
 11
-1.766703840850891
 21
112.8271306787554
 31
0.0
  0
LINE
  5
99
330
1F
100
AcDbEntity
  8
縦断図
  6
Continuous
 62
     7
370
    13
100
AcDbLine
 10
-1.56270384085089
 20
113.9149359794484
 30
0.0
 11
-1.56270384085089
 21
112.825510963043
 31
0.0
  0
LINE
  5
9A
330
1F
100
AcDbEntity
  8
縦断図
  6
Continuous
 62
     7
370
    13
100
AcDbLine
 10
-1.215703840850892
 20
113.9149359794484
 30
0.0
 11
-1.215703840850892
 21
108.3029957137494
 31
0.0
  0
LINE
  5
9B
330
1F
100
AcDbEntity
  8
縦断図
  6
Continuous
 62
     7
370
    13
100
AcDbLine
 10
-0.7997038408508921
 20
113.9149359794484
 30
0.0
 11
-0.7997038408508921
 21
112.2536512191002
 31
0.0
  0
LINE
  5
9C
330
1F
100
AcDbEntity
  8
縦断図
  6
Continuous
 62
     7
370
    13
100
AcDbLine
 10
0.6902961591491028
 20
113.9149359794484
 30
0.0
 11
0.6902961591491028
 21
112.8866452080991
 31
0.0
  0
LINE
  5
9D
330
1F
100
AcDbEntity
  8
縦断図
  6
Continuous
 62
     7
370
    13
100
AcDbLine
 10
1.094296159149103
 20
113.8649359794484
 30
0.0
 11
1.094296159149103
 21
108.4076484132192
 31
0.0
  0
LINE
  5
9E
330
1F
100
AcDbEntity
  8
縦断図
  6
Continuous
 62
     7
370
    13
100
AcDbLine
 10
1.338296159149102
 20
114.6249359794484
 30
0.0
 11
1.338296159149102
 21
112.2882738388457
 31
0.0
  0
LINE
  5
9F
330
1F
100
AcDbEntity
  8
縦断図
  6
Continuous
 62
     7
370
    13
100
AcDbLine
 10
1.527296159149103
 20
113.9587415275542
 30
0.0
 11
1.526761496654625
 21
105.8500563699498
 31
0.0
  0
LINE
  5
A0
330
1F
100
AcDbEntity
  8
縦断図
  6
Continuous
 62
     7
370
    13
100
AcDbLine
 10
1.815296159149103
 20
114.6249359794484
 30
0.0
 11
1.815296159149103
 21
109.1726844953178
 31
0.0
  0
LINE
  5
A1
330
1F
100
AcDbEntity
  8
縦断図
  6
Continuous
 62
     7
370
    13
100
AcDbLine
 10
2.083296159149103
 20
113.9601462813985
 30
0.0
 11
2.083296159149103
 21
107.5379588587261
 31
0.0
  0
LINE
  5
A2
330
1F
100
AcDbEntity
  8
縦断図
  6
Continuous
 62
     7
370
    13
100
AcDbLine
 10
2.286296159149103
 20
113.9601462813985
 30
0.0
 11
2.286296159149103
 21
108.3917042834422
 31
0.0
  0
LINE
  5
A3
330
1F
100
AcDbEntity
  8
縦断図
  6
Continuous
 62
     7
370
    13
100
AcDbLine
 10
0.9612961591491036
 20
113.9149359794484
 30
0.0
 11
-7.538703840850896
 21
113.9149359794484
 31
0.0
  0
LINE
  5
A4
330
1F
100
AcDbEntity
  8
縦断図
  6
Continuous
 62
     7
370
    13
100
AcDbLine
 10
2.976296159149104
 20
115.3446598166577
 30
0.0
 11
2.976296159149104
 21
107.0565506617083
 31
0.0
  0
LINE
  5
A5
330
1F
100
AcDbEntity
  8
縦断図
  6
Continuous
 62
     7
370
    13
100
AcDbLine
 10
2.681296159149102
 20
114.5749359794484
 30
0.0
 11
2.681296159149102
 21
114.6249359794484
 31
0.0
  0
LINE
  5
A6
330
1F
100
AcDbEntity
  8
縦断図
  6
dashed
 62
     7
370
    13
100
AcDbLine
 10
2.631296159149102
 20
115.3216178477671
 30
0.0
 11
-6.988703840850899
 21
114.5149359794484
 31
0.0
  0
LINE
  5
A7
330
1F
100
AcDbEntity
  8
縦断図
  6
Continuous
 62
     7
370
    13
100
AcDbLine
 10
2.976296159149104
 20
115.3446598166577
 30
0.0
 11
2.631296159149102
 21
115.3216178477671
 31
0.0
  0
LINE
  5
A8
330
1F
100
AcDbEntity
  8
縦断図
  6
Continuous
 62
     7
370
    13
100
AcDbLine
 10
2.631296159149102
 20
115.3216178477671
 30
0.0
 11
2.631296159149102
 21
116.4416178477671
 31
0.0
  0
LINE
  5
A9
330
1F
100
AcDbEntity
  8
縦断図
  6
Continuous
 62
     7
370
    13
100
AcDbLine
 10
1.881296159149105
 20
116.3873027332932
 30
0.0
 11
1.881296159149105
 21
116.2373027332931
 31
0.0
  0
LINE
  5
AA
330
1F
100
AcDbEntity
  8
縦断図
  6
Continuous
 62
     7
370
    13
100
AcDbLine
 10
1.681296159149102
 20
116.3728187027668
 30
0.0
 11
1.681296159149102
 21
116.2228187027668
 31
0.0
  0
LINE
  5
AB
330
1F
100
AcDbEntity
  8
縦断図
  6
Continuous
 62
     7
370
    13
100
AcDbLine
 10
1.681296159149102
 20
116.2228187027668
 30
0.0
 11
1.881296159149105
 21
116.2373027332931
 31
0.0
  0
LINE
  5
AC
330
1F
100
AcDbEntity
  8
縦断図
  6
Continuous
 62
     7
370
    13
100
AcDbLine
 10
0.9612961591491036
 20
113.8649359794484
 30
0.0
 11
0.9612961591491036
 21
113.9149359794484
 31
0.0
  0
LINE
  5
AD
330
1F
100
AcDbEntity
  8
縦断図
  6
Continuous
 62
     7
370
    13
100
AcDbLine
 10
-7.538703840850896
 20
113.9149359794484
 30
0.0
 11
-7.538703840850896
 21
108.2249359794484
 31
0.0
  0
LINE
  5
AE
330
1F
100
AcDbEntity
  8
縦断図
  6
Continuous
 62
     7
370
    13
100
AcDbLine
 10
-5.911703840850898
 20
113.9149359794484
 30
0.0
 11
-5.911703840850898
 21
114.2449359794484
 31
0.0
  0
LINE
  5
AF
330
1F
100
AcDbEntity
  8
縦断図
  6
Continuous
 62
     7
370
    13
100
AcDbLine
 10
-5.707703840850897
 20
113.9149359794484
 30
0.0
 11
-5.707703840850897
 21
114.2449359794484
 31
0.0
  0
LINE
  5
B0
330
1F
100
AcDbEntity
  8
縦断図
  6
Continuous
 62
     7
370
    13
100
AcDbLine
 10
-5.514703840850895
 20
113.9149359794484
 30
0.0
 11
-5.514703840850895
 21
114.2349359794484
 31
0.0
  0
LINE
  5
B1
330
1F
100
AcDbEntity
  8
縦断図
  6
Continuous
 62
     7
370
    13
100
AcDbLine
 10
-5.313703840850897
 20
113.9149359794484
 30
0.0
 11
-5.313703840850897
 21
114.2449359794484
 31
0.0
  0
LINE
  5
B2
330
1F
100
AcDbEntity
  8
縦断図
  6
Continuous
 62
     7
370
    13
100
AcDbLine
 10
-4.977703840850895
 20
113.9149359794484
 30
0.0
 11
-4.977703840850895
 21
114.2449359794484
 31
0.0
  0
LINE
  5
B3
330
1F
100
AcDbEntity
  8
縦断図
  6
Continuous
 62
     7
370
    13
100
AcDbLine
 10
-4.714703840850895
 20
113.9149359794484
 30
0.0
 11
-4.714703840850895
 21
114.2349359794484
 31
0.0
  0
LINE
  5
B4
330
1F
100
AcDbEntity
  8
縦断図
  6
Continuous
 62
     7
370
    13
100
AcDbLine
 10
-3.685703840850898
 20
113.9149359794484
 30
0.0
 11
-3.685703840850898
 21
114.2349359794484
 31
0.0
  0
LINE
  5
B5
330
1F
100
AcDbEntity
  8
縦断図
  6
Continuous
 62
     7
370
    13
100
AcDbLine
 10
-3.388703840850891
 20
113.9149359794484
 30
0.0
 11
-3.388703840850891
 21
114.1449359794484
 31
0.0
  0
LINE
  5
B6
330
1F
100
AcDbEntity
  8
縦断図
  6
Continuous
 62
     7
370
    13
100
AcDbLine
 10
-2.952703840850891
 20
113.9149359794484
 30
0.0
 11
-2.952703840850891
 21
114.1449359794484
 31
0.0
  0
LINE
  5
B7
330
1F
100
AcDbEntity
  8
縦断図
  6
Continuous
 62
     7
370
    13
100
AcDbLine
 10
-2.727703840850893
 20
113.9149359794484
 30
0.0
 11
-2.727703840850893
 21
114.2349359794484
 31
0.0
  0
LINE
  5
B8
330
1F
100
AcDbEntity
  8
縦断図
  6
Continuous
 62
     7
370
    13
100
AcDbLine
 10
-2.224703840850893
 20
113.9149359794484
 30
0.0
 11
-2.224703840850893
 21
114.2349359794484
 31
0.0
  0
LINE
  5
B9
330
1F
100
AcDbEntity
  8
縦断図
  6
Continuous
 62
     7
370
    13
100
AcDbLine
 10
-1.766703840850891
 20
113.9149359794484
 30
0.0
 11
-1.766703840850891
 21
114.1949359794484
 31
0.0
  0
LINE
  5
BA
330
1F
100
AcDbEntity
  8
縦断図
  6
Continuous
 62
     7
370
    13
100
AcDbLine
 10
-1.56270384085089
 20
113.9149359794484
 30
0.0
 11
-1.56270384085089
 21
114.1949359794484
 31
0.0
  0
LINE
  5
BB
330
1F
100
AcDbEntity
  8
縦断図
  6
Continuous
 62
     7
370
    13
100
AcDbLine
 10
-1.215703840850892
 20
113.9149359794484
 30
0.0
 11
-1.215703840850892
 21
114.2349359794484
 31
0.0
  0
LINE
  5
BC
330
1F
100
AcDbEntity
  8
縦断図
  6
Continuous
 62
     7
370
    13
100
AcDbLine
 10
-0.7997038408508921
 20
113.9149359794484
 30
0.0
 11
-0.7997038408508921
 21
114.2349359794484
 31
0.0
  0
LINE
  5
BD
330
1F
100
AcDbEntity
  8
縦断図
  6
Continuous
 62
     7
370
    13
100
AcDbLine
 10
0.274296159149106
 20
113.9149359794484
 30
0.0
 11
0.274296159149106
 21
114.2349359794484
 31
0.0
  0
LINE
  5
BE
330
1F
100
AcDbEntity
  8
縦断図
  6
Continuous
 62
     7
370
    13
100
AcDbLine
 10
0.4732961591491041
 20
113.9149359794484
 30
0.0
 11
0.4732961591491041
 21
114.1949359794484
 31
0.0
  0
LINE
  5
BF
330
1F
100
AcDbEntity
  8
縦断図
  6
Continuous
 62
     7
370
    13
100
AcDbLine
 10
0.6902961591491028
 20
113.9149359794484
 30
0.0
 11
0.6902961591491028
 21
114.1949359794484
 31
0.0
  0
LINE
  5
C0
330
1F
100
AcDbEntity
  8
縦断図
  6
Continuous
 62
     7
370
    13
100
AcDbLine
 10
0.9612961591491036
 20
114.5749359794484
 30
0.0
 11
2.681296159149102
 21
114.5749359794484
 31
0.0
  0
LINE
  5
C1
330
1F
100
AcDbEntity
  8
縦断図
  6
Continuous
 62
     7
370
    13
100
AcDbLine
 10
1.338296159149102
 20
114.6249359794484
 30
0.0
 11
1.338296159149102
 21
114.8149359794484
 31
0.0
  0
LINE
  5
C2
330
1F
100
AcDbEntity
  8
縦断図
  6
Continuous
 62
     7
370
    13
100
AcDbLine
 10
1.527296159149103
 20
114.6249359794484
 30
0.0
 11
1.527296159149103
 21
114.8249359794484
 31
0.0
  0
LINE
  5
C3
330
1F
100
AcDbEntity
  8
縦断図
  6
Continuous
 62
     7
370
    13
100
AcDbLine
 10
1.815296159149103
 20
114.6249359794484
 30
0.0
 11
1.815296159149103
 21
115.0049359794484
 31
0.0
  0
LINE
  5
C4
330
1F
100
AcDbEntity
  8
縦断図
  6
Continuous
 62
     7
370
    13
100
AcDbLine
 10
2.083296159149103
 20
114.6249359794484
 30
0.0
 11
2.083296159149103
 21
114.8249359794484
 31
0.0
  0
LINE
  5
C5
330
1F
100
AcDbEntity
  8
縦断図
  6
Continuous
 62
     7
370
    13
100
AcDbLine
 10
2.286296159149103
 20
114.6249359794484
 30
0.0
 11
2.286296159149103
 21
114.8249359794484
 31
0.0
  0
LINE
  5
C6
330
1F
100
AcDbEntity
  8
縦断図
  6
Continuous
 62
     7
370
    13
100
AcDbLine
 10
1.094296159149103
 20
113.8649359794484
 30
0.0
 11
1.094296159149103
 21
114.3949359794484
 31
0.0
  0
LINE
  5
C7
330
1F
100
AcDbEntity
  8
縦断図
  6
Continuous
 62
     7
370
    13
100
AcDbLine
 10
4.009296159149105
 20
100.0649359794484
 30
0.0
 11
4.352296159149105
 21
100.0649359794484
 31
0.0
  0
LINE
  5
C8
330
1F
100
AcDbEntity
  8
縦断図
  6
Continuous
 62
     7
370
    13
100
AcDbLine
 10
4.352296159149105
 20
100.0649359794484
 30
0.0
 11
4.352296159149105
 21
99.01493597944844
 31
0.0
  0
LINE
  5
C9
330
1F
100
AcDbEntity
  8
縦断図
  6
Continuous
 62
     7
370
    13
100
AcDbLine
 10
4.352296159149105
 20
99.01493597944844
 30
0.0
 11
5.543017149337189
 21
99.01493597944844
 31
0.0
  0
LINE
  5
CA
330
1F
100
AcDbEntity
  8
縦断図
  6
Continuous
 62
     7
370
    13
100
AcDbLine
 10
-6.401774410351495
 20
108.9749188388025
 30
0.0
 11
-6.3967038408509
 21
108.2249359794484
 31
0.0
  0
LINE
  5
CB
330
1F
100
AcDbEntity
  8
縦断図
  6
Continuous
 62
     7
370
    13
100
AcDbLine
 10
6.163831795696709
 20
99.61496689412978
 30
0.0
 11
6.211885512826235
 21
99.01493597944844
 31
0.0
  0
POLYLINE
  5
CC
330
1F
100
AcDbEntity
  8
縦断図
  6
Continuous
 62
     7
370
    13
100
AcDb3dPolyline
 66
     1
 10
0.0
 20
0.0
 30
0.0
 70
     8
  0
VERTEX
  5
CD
330
CC
100
AcDbEntity
  8
縦断図
  6
Continuous
 62
     7
100
AcDbVertex
100
AcDb3dPolylineVertex
 10
-5.954191028986108
 20
106.5456141734317
 30
0.0
 70
    32
  0
VERTEX
  5
CE
330
CC
100
AcDbEntity
  8
縦断図
  6
Continuous
 62
     7
100
AcDbVertex
100
AcDb3dPolylineVertex
 10
-5.952124859162463
 20
109.293784093268
 30
0.0
 70
    32
  0
VERTEX
  5
CF
330
CC
100
AcDbEntity
  8
縦断図
  6
Continuous
 62
     7
100
AcDbVertex
100
AcDb3dPolylineVertex
 10
-5.930359019782104
 20
113.285760769342
 30
0.0
 70
    32
  0
SEQEND
  5
D0
330
CC
100
AcDbEntity
  8
縦断図
  6
Continuous
 62
     7
370
    13
  0
POLYLINE
  5
D1
330
1F
100
AcDbEntity
  8
縦断図
  6
Continuous
 62
     7
370
    13
100
AcDb3dPolyline
 66
     1
 10
0.0
 20
0.0
 30
0.0
 70
     8
  0
VERTEX
  5
D2
330
D1
100
AcDbEntity
  8
縦断図
  6
Continuous
 62
     7
100
AcDbVertex
100
AcDb3dPolylineVertex
 10
-5.899580021679299
 20
113.285760769342
 30
0.0
 70
    32
  0
VERTEX
  5
D3
330
D1
100
AcDbEntity
  8
縦断図
  6
Continuous
 62
     7
100
AcDbVertex
100
AcDb3dPolylineVertex
 10
-5.888976314256986
 20
112.26175743256
 30
0.0
 70
    32
  0
VERTEX
  5
D4
330
D1
100
AcDbEntity
  8
縦断図
  6
Continuous
 62
     7
100
AcDbVertex
100
AcDb3dPolylineVertex
 10
-5.877056815469185
 20
109.469754910504
 30
0.0
 70
    32
  0
VERTEX
  5
D5
330
D1
100
AcDbEntity
  8
縦断図
  6
Continuous
 62
     7
100
AcDbVertex
100
AcDb3dPolylineVertex
 10
-5.857819213231581
 20
107.4997489408394
 30
0.0
 70
    32
  0
VERTEX
  5
D6
330
D1
100
AcDbEntity
  8
縦断図
  6
Continuous
 62
     7
100
AcDbVertex
100
AcDb3dPolylineVertex
 10
-5.854170345338806
 20
106.5456141734317
 30
0.0
 70
    32
  0
SEQEND
  5
D7
330
D1
100
AcDbEntity
  8
縦断図
  6
Continuous
 62
     7
370
    13
  0
POLYLINE
  5
D8
330
1F
100
AcDbEntity
  8
縦断図
  6
Continuous
 62
     7
370
    13
100
AcDb3dPolyline
 66
     1
 10
0.0
 20
0.0
 30
0.0
 70
     8
  0
VERTEX
  5
D9
330
D8
100
AcDbEntity
  8
縦断図
  6
Continuous
 62
     7
100
AcDbVertex
100
AcDb3dPolylineVertex
 10
-4.251470043563099
 20
111.1454365197657
 30
0.0
 70
    32
  0
VERTEX
  5
DA
330
D8
100
AcDbEntity
  8
縦断図
  6
Continuous
 62
     7
100
AcDbVertex
100
AcDb3dPolylineVertex
 10
-4.281760645220222
 20
107.7625428873281
 30
0.0
 70
    32
  0
VERTEX
  5
DB
330
D8
100
AcDbEntity
  8
縦断図
  6
Continuous
 62
     7
100
AcDbVertex
100
AcDb3dPolylineVertex
 10
-4.369960642464539
 20
107.2455774074456
 30
0.0
 70
    32
  0
VERTEX
  5
DC
330
D8
100
AcDbEntity
  8
縦断図
  6
Continuous
 62
     7
100
AcDbVertex
100
AcDb3dPolylineVertex
 10
-4.087998434365552
 20
107.1484683620707
 30
0.0
 70
    32
  0
VERTEX
  5
DD
330
D8
100
AcDbEntity
  8
縦断図
  6
Continuous
 62
     7
100
AcDbVertex
100
AcDb3dPolylineVertex
 10
-3.818670504482299
 20
107.9963634984564
 30
0.0
 70
    32
  0
VERTEX
  5
DE
330
D8
100
AcDbEntity
  8
縦断図
  6
Continuous
 62
     7
100
AcDbVertex
100
AcDb3dPolylineVertex
 10
-4.049304973799215
 20
108.9404520459858
 30
0.0
 70
    32
  0
VERTEX
  5
DF
330
D8
100
AcDbEntity
  8
縦断図
  6
Continuous
 62
     7
100
AcDbVertex
100
AcDb3dPolylineVertex
 10
-3.806047453609267
 20
109.606357407781
 30
0.0
 70
    32
  0
VERTEX
  5
E0
330
D8
100
AcDbEntity
  8
縦断図
  6
Continuous
 62
     7
100
AcDbVertex
100
AcDb3dPolylineVertex
 10
-4.013451681677397
 20
111.1454365197657
 30
0.0
 70
    32
  0
SEQEND
  5
E1
330
D8
100
AcDbEntity
  8
縦断図
  6
Continuous
 62
     7
370
    13
  0
LINE
  5
E2
330
1F
100
AcDbEntity
  8
縦断図
  6
Continuous
 62
     7
370
    13
100
AcDbLine
 10
-3.387097184394637
 20
108.0495730058778
 30
0.0
 11
-3.477687838675102
 21
107.8438275831585
 31
0.0
  0
LINE
  5
E3
330
1F
100
AcDbEntity
  8
縦断図
  6
Continuous
 62
     7
370
    13
100
AcDbLine
 10
-3.477687838675102
 20
107.8438275831585
 30
0.0
 11
-3.518711021521753
 21
107.7838435038617
 31
0.0
  0
POLYLINE
  5
E4
330
1F
100
AcDbEntity
  8
縦断図
  6
Continuous
 62
     7
370
    13
100
AcDb3dPolyline
 66
     1
 10
0.0
 20
0.0
 30
0.0
 70
     8
  0
VERTEX
  5
E5
330
E4
100
AcDbEntity
  8
縦断図
  6
Continuous
 62
     7
100
AcDbVertex
100
AcDb3dPolylineVertex
 10
-3.518711021521753
 20
107.7838435038617
 30
0.0
 70
    32
  0
VERTEX
  5
E6
330
E4
100
AcDbEntity
  8
縦断図
  6
Continuous
 62
     7
100
AcDbVertex
100
AcDb3dPolylineVertex
 10
-3.458849232587291
 20
107.426820604971
 30
0.0
 70
    32
  0
VERTEX
  5
E7
330
E4
100
AcDbEntity
  8
縦断図
  6
Continuous
 62
     7
100
AcDbVertex
100
AcDb3dPolylineVertex
 10
-3.19083515460246
 20
107.4637168571119
 30
0.0
 70
    32
  0
VERTEX
  5
E8
330
E4
100
AcDbEntity
  8
縦断図
  6
Continuous
 62
     7
100
AcDbVertex
100
AcDb3dPolylineVertex
 10
-3.238732944838091
 20
107.7277351956341
 30
0.0
 70
    32
  0
SEQEND
  5
E9
330
E4
100
AcDbEntity
  8
縦断図
  6
Continuous
 62
     7
370
    13
  0
LINE
  5
EA
330
1F
100
AcDbEntity
  8
縦断図
  6
Continuous
 62
     7
370
    13
100
AcDbLine
 10
-3.238732944838091
 20
107.7277351956341
 30
0.0
 11
-3.387097184394637
 21
108.0495730058778
 31
0.0
  0
LINE
  5
EB
330
1F
100
AcDbEntity
  8
縦断図
  6
Continuous
 62
     7
370
    13
100
AcDbLine
 10
-2.979444564160932
 20
108.1519682892626
 30
0.0
 11
-2.917408615700214
 21
107.8284563976077
 31
0.0
  0
LINE
  5
EC
330
1F
100
AcDbEntity
  8
縦断図
  6
Continuous
 62
     7
370
    13
100
AcDbLine
 10
-2.861307024508331
 20
107.6629789299982
 30
0.0
 11
-2.879795515924389
 21
108.145428677631
 31
0.0
  0
LINE
  5
ED
330
1F
100
AcDbEntity
  8
縦断図
  6
Continuous
 62
     7
370
    13
100
AcDbLine
 10
-2.779968628804941
 20
113.0506169746913
 30
0.0
 11
-2.689968628804937
 21
113.0506169746913
 31
0.0
  0
POLYLINE
  5
EE
330
1F
100
AcDbEntity
  8
縦断図
  6
Continuous
 62
     7
370
    13
100
AcDb3dPolyline
 66
     1
 10
0.0
 20
0.0
 30
0.0
 70
     8
  0
VERTEX
  5
EF
330
EE
100
AcDbEntity
  8
縦断図
  6
Continuous
 62
     7
100
AcDbVertex
100
AcDb3dPolylineVertex
 10
-2.623079674240778
 20
113.0506169746913
 30
0.0
 70
    32
  0
VERTEX
  5
F0
330
EE
100
AcDbEntity
  8
縦断図
  6
Continuous
 62
     7
100
AcDbVertex
100
AcDb3dPolylineVertex
 10
-2.653197874181576
 20
111.8946294959361
 30
0.0
 70
    32
  0
VERTEX
  5
F1
330
EE
100
AcDbEntity
  8
縦断図
  6
Continuous
 62
     7
100
AcDbVertex
100
AcDb3dPolylineVertex
 10
-2.548196807549605
 20
111.8975888587845
 30
0.0
 70
    32
  0
VERTEX
  5
F2
330
EE
100
AcDbEntity
  8
縦断図
  6
Continuous
 62
     7
100
AcDbVertex
100
AcDb3dPolylineVertex
 10
-2.57292654744715
 20
113.0505975656737
 30
0.0
 70
    32
  0
SEQEND
  5
F3
330
EE
100
AcDbEntity
  8
縦断図
  6
Continuous
 62
     7
370
    13
  0
LINE
  5
F4
330
1F
100
AcDbEntity
  8
縦断図
  6
Continuous
 62
     7
370
    13
100
AcDbLine
 10
-1.86405212146953
 20
106.7314178133456
 30
0.0
 11
-1.886850267169436
 21
112.5952083782711
 31
0.0
  0
POLYLINE
  5
F5
330
1F
100
AcDbEntity
  8
縦断図
  6
Continuous
 62
     7
370
    13
100
AcDb3dPolyline
 66
     1
 10
0.0
 20
0.0
 30
0.0
 70
     8
  0
VERTEX
  5
F6
330
F5
100
AcDbEntity
  8
縦断図
  6
Continuous
 62
     7
100
AcDbVertex
100
AcDb3dPolylineVertex
 10
-1.212816149694174
 20
108.2229957137494
 30
0.0
 70
    32
  0
VERTEX
  5
F7
330
F5
100
AcDbEntity
  8
縦断図
  6
Continuous
 62
     7
100
AcDbVertex
100
AcDb3dPolylineVertex
 10
-1.283632147964234
 20
107.9919783826383
 30
0.0
 70
    32
  0
VERTEX
  5
F8
330
F5
100
AcDbEntity
  8
縦断図
  6
Continuous
 62
     7
100
AcDbVertex
100
AcDb3dPolylineVertex
 10
-1.401696283069779
 20
107.8260241971935
 30
0.0
 70
    32
  0
VERTEX
  5
F9
330
F5
100
AcDbEntity
  8
縦断図
  6
Continuous
 62
     7
100
AcDbVertex
100
AcDb3dPolylineVertex
 10
-1.343763285291665
 20
107.653001906951
 30
0.0
 70
    32
  0
VERTEX
  5
FA
330
F5
100
AcDbEntity
  8
縦断図
  6
Continuous
 62
     7
100
AcDbVertex
100
AcDb3dPolylineVertex
 10
-1.300217202594709
 20
107.4871544181065
 30
0.0
 70
    32
  0
VERTEX
  5
FB
330
F5
100
AcDbEntity
  8
縦断図
  6
Continuous
 62
     7
100
AcDbVertex
100
AcDb3dPolylineVertex
 10
-1.03781735254131
 20
107.5138836114415
 30
0.0
 70
    32
  0
VERTEX
  5
FC
330
F5
100
AcDbEntity
  8
縦断図
  6
Continuous
 62
     7
100
AcDbVertex
100
AcDb3dPolylineVertex
 10
-1.029751957605917
 20
107.6828803636205
 30
0.0
 70
    32
  0
VERTEX
  5
FD
330
F5
100
AcDbEntity
  8
縦断図
  6
Continuous
 62
     7
100
AcDbVertex
100
AcDb3dPolylineVertex
 10
-0.9706920264262813
 20
107.837857391644
 30
0.0
 70
    32
  0
VERTEX
  5
FE
330
F5
100
AcDbEntity
  8
縦断図
  6
Continuous
 62
     7
100
AcDbVertex
100
AcDb3dPolylineVertex
 10
-1.089632709286427
 20
107.9909033065423
 30
0.0
 70
    32
  0
VERTEX
  5
FF
330
F5
100
AcDbEntity
  8
縦断図
  6
Continuous
 62
     7
100
AcDbVertex
100
AcDb3dPolylineVertex
 10
-1.212816149694174
 20
108.2229957137494
 30
0.0
 70
    32
  0
SEQEND
  5
100
330
F5
100
AcDbEntity
  8
縦断図
  6
Continuous
 62
     7
370
    13
  0
POLYLINE
  5
101
330
1F
100
AcDbEntity
  8
縦断図
  6
Continuous
 62
     7
370
    13
100
AcDb3dPolyline
 66
     1
 10
0.0
 20
0.0
 30
0.0
 70
     8
  0
VERTEX
  5
102
330
101
100
AcDbEntity
  8
縦断図
  6
Continuous
 62
     7
100
AcDbVertex
100
AcDb3dPolylineVertex
 10
-0.7367449009910345
 20
112.9392187952265
 30
0.0
 70
    32
  0
VERTEX
  5
103
330
101
100
AcDbEntity
  8
縦断図
  6
Continuous
 62
     7
100
AcDbVertex
100
AcDb3dPolylineVertex
 10
-0.7654925258053531
 20
110.9377756590574
 30
0.0
 70
    32
  0
VERTEX
  5
104
330
101
100
AcDbEntity
  8
縦断図
  6
Continuous
 62
     7
100
AcDbVertex
100
AcDb3dPolylineVertex
 10
-0.6294914870298243
 20
110.9407230250665
 30
0.0
 70
    32
  0
VERTEX
  5
105
330
101
100
AcDbEntity
  8
縦断図
  6
Continuous
 62
     7
100
AcDbVertex
100
AcDb3dPolylineVertex
 10
-0.6503556329783962
 20
111.2917308365509
 30
0.0
 70
    32
  0
VERTEX
  5
106
330
101
100
AcDbEntity
  8
縦断図
  6
Continuous
 62
     7
100
AcDbVertex
100
AcDb3dPolylineVertex
 10
-0.6730518213789765
 20
112.0767390320348
 30
0.0
 70
    32
  0
VERTEX
  5
107
330
101
100
AcDbEntity
  8
縦断図
  6
Continuous
 62
     7
100
AcDbVertex
100
AcDb3dPolylineVertex
 10
-0.6757480277514318
 20
112.9392187952265
 30
0.0
 70
    32
  0
SEQEND
  5
108
330
101
100
AcDbEntity
  8
縦断図
  6
Continuous
 62
     7
370
    13
  0
POLYLINE
  5
109
330
1F
100
AcDbEntity
  8
縦断図
  6
Continuous
 62
     7
370
    13
100
AcDb3dPolyline
 66
     1
 10
0.0
 20
0.0
 30
0.0
 70
     8
  0
VERTEX
  5
10A
330
109
100
AcDbEntity
  8
縦断図
  6
Continuous
 62
     7
100
AcDbVertex
100
AcDb3dPolylineVertex
 10
-0.3531244679742116
 20
107.0568306924747
 30
0.0
 70
    32
  0
VERTEX
  5
10B
330
109
100
AcDbEntity
  8
縦断図
  6
Continuous
 62
     7
100
AcDbVertex
100
AcDb3dPolylineVertex
 10
-0.1061641633984785
 20
106.9547351964114
 30
0.0
 70
    32
  0
VERTEX
  5
10C
330
109
100
AcDbEntity
  8
縦断図
  6
Continuous
 62
     7
100
AcDbVertex
100
AcDb3dPolylineVertex
 10
0.1201858638289188
 20
107.8596469223544
 30
0.0
 70
    32
  0
VERTEX
  5
10D
330
109
100
AcDbEntity
  8
縦断図
  6
Continuous
 62
     7
100
AcDbVertex
100
AcDb3dPolylineVertex
 10
-0.0622965596572236
 20
109.1967165409848
 30
0.0
 70
    32
  0
VERTEX
  5
10E
330
109
100
AcDbEntity
  8
縦断図
  6
Continuous
 62
     7
100
AcDbVertex
100
AcDb3dPolylineVertex
 10
0.17091878708354
 20
109.753625870675
 30
0.0
 70
    32
  0
VERTEX
  5
10F
330
109
100
AcDbEntity
  8
縦断図
  6
Continuous
 62
     7
100
AcDbVertex
100
AcDb3dPolylineVertex
 10
-0.0025237840237935
 20
111.1936919137968
 30
0.0
 70
    32
  0
VERTEX
  5
110
330
109
100
AcDbEntity
  8
縦断図
  6
Continuous
 62
     7
100
AcDbVertex
100
AcDb3dPolylineVertex
 10
-0.3531244679742116
 20
111.1964897160195
 30
0.0
 70
    32
  0
SEQEND
  5
111
330
109
100
AcDbEntity
  8
縦断図
  6
Continuous
 62
     7
370
    13
  0
POLYLINE
  5
112
330
1F
100
AcDbEntity
  8
縦断図
  6
Continuous
 62
     7
370
    13
100
AcDb3dPolyline
 66
     1
 10
0.0
 20
0.0
 30
0.0
 70
     8
  0
VERTEX
  5
113
330
112
100
AcDbEntity
  8
縦断図
  6
Continuous
 62
     7
100
AcDbVertex
100
AcDb3dPolylineVertex
 10
0.4371177784231861
 20
110.9241931648954
 30
0.0
 70
    32
  0
VERTEX
  5
114
330
112
100
AcDbEntity
  8
縦断図
  6
Continuous
 62
     7
100
AcDbVertex
100
AcDb3dPolylineVertex
 10
0.4279643003320501
 20
109.456145934255
 30
0.0
 70
    32
  0
VERTEX
  5
115
330
112
100
AcDbEntity
  8
縦断図
  6
Continuous
 62
     7
100
AcDbVertex
100
AcDb3dPolylineVertex
 10
0.5569641844133209
 20
109.4560960119236
 30
0.0
 70
    32
  0
VERTEX
  5
116
330
112
100
AcDbEntity
  8
縦断図
  6
Continuous
 62
     7
100
AcDbVertex
100
AcDb3dPolylineVertex
 10
0.5055319525375737
 20
110.9231148174156
 30
0.0
 70
    32
  0
VERTEX
  5
117
330
112
100
AcDbEntity
  8
縦断図
  6
Continuous
 62
     7
100
AcDbVertex
100
AcDb3dPolylineVertex
 10
0.4371177784231861
 20
110.9241931648954
 30
0.0
 70
    32
  0
SEQEND
  5
118
330
112
100
AcDbEntity
  8
縦断図
  6
Continuous
 62
     7
370
    13
  0
POLYLINE
  5
119
330
1F
100
AcDbEntity
  8
縦断図
  6
Continuous
 62
     7
370
    13
100
AcDb3dPolyline
 66
     1
 10
0.0
 20
0.0
 30
0.0
 70
     8
  0
VERTEX
  5
11A
330
119
100
AcDbEntity
  8
縦断図
  6
Continuous
 62
     7
100
AcDbVertex
100
AcDb3dPolylineVertex
 10
1.096276924528993
 20
108.3276484132192
 30
0.0
 70
    32
  0
VERTEX
  5
11B
330
119
100
AcDbEntity
  8
縦断図
  6
Continuous
 62
     7
100
AcDbVertex
100
AcDb3dPolylineVertex
 10
0.9962168102349054
 20
107.6060963804134
 30
0.0
 70
    32
  0
VERTEX
  5
11C
330
119
100
AcDbEntity
  8
縦断図
  6
Continuous
 62
     7
100
AcDbVertex
100
AcDb3dPolylineVertex
 10
1.281220811078427
 20
107.6169860770059
 30
0.0
 70
    32
  0
VERTEX
  5
11D
330
119
100
AcDbEntity
  8
縦断図
  6
Continuous
 62
     7
100
AcDbVertex
100
AcDb3dPolylineVertex
 10
1.325354671747075
 20
107.9629687383201
 30
0.0
 70
    32
  0
VERTEX
  5
11E
330
119
100
AcDbEntity
  8
縦断図
  6
Continuous
 62
     7
100
AcDbVertex
100
AcDb3dPolylineVertex
 10
1.170371064811626
 20
108.0050286847758
 30
0.0
 70
    32
  0
SEQEND
  5
11F
330
119
100
AcDbEntity
  8
縦断図
  6
Continuous
 62
     7
370
    13
  0
LINE
  5
120
330
1F
100
AcDbEntity
  8
縦断図
  6
Continuous
 62
     7
370
    13
100
AcDbLine
 10
1.170371064811626
 20
108.0050286847758
 30
0.0
 11
1.096276924528993
 21
108.3276484132192
 31
0.0
  0
LINE
  5
121
330
1F
100
AcDbEntity
  8
縦断図
  6
Continuous
 62
     7
370
    13
100
AcDbLine
 10
1.570845721344053
 20
105.6588314839126
 30
0.0
 11
1.526761496654625
 21
105.8500563699498
 31
0.0
  0
POLYLINE
  5
122
330
1F
100
AcDbEntity
  8
縦断図
  6
Continuous
 62
     7
370
    13
100
AcDb3dPolyline
 66
     1
 10
0.0
 20
0.0
 30
0.0
 70
     8
  0
VERTEX
  5
123
330
122
100
AcDbEntity
  8
縦断図
  6
Continuous
 62
     7
100
AcDbVertex
100
AcDb3dPolylineVertex
 10
1.666405959525882
 20
109.094238915077
 30
0.0
 70
    32
  0
VERTEX
  5
124
330
122
100
AcDbEntity
  8
縦断図
  6
Continuous
 62
     7
100
AcDbVertex
100
AcDb3dPolylineVertex
 10
1.64128794857141
 20
108.7892488640188
 30
0.0
 70
    32
  0
VERTEX
  5
125
330
122
100
AcDbEntity
  8
縦断図
  6
Continuous
 62
     7
100
AcDbVertex
100
AcDb3dPolylineVertex
 10
1.649252337859426
 20
108.697245850731
 30
0.0
 70
    32
  0
VERTEX
  5
126
330
122
100
AcDbEntity
  8
縦断図
  6
Continuous
 62
     7
100
AcDbVertex
100
AcDb3dPolylineVertex
 10
1.69130725338254
 20
108.8392294693482
 30
0.0
 70
    32
  0
VERTEX
  5
127
330
122
100
AcDbEntity
  8
縦断図
  6
Continuous
 62
     7
100
AcDbVertex
100
AcDb3dPolylineVertex
 10
1.705250739558895
 20
108.6932241826156
 30
0.0
 70
    32
  0
VERTEX
  5
128
330
122
100
AcDbEntity
  8
縦断図
  6
Continuous
 62
     7
100
AcDbVertex
100
AcDb3dPolylineVertex
 10
1.721198867875817
 20
108.5592181111102
 30
0.0
 70
    32
  0
VERTEX
  5
129
330
122
100
AcDbEntity
  8
縦断図
  6
Continuous
 62
     7
100
AcDbVertex
100
AcDb3dPolylineVertex
 10
1.755235214836461
 20
108.6532048688185
 30
0.0
 70
    32
  0
VERTEX
  5
12A
330
122
100
AcDbEntity
  8
縦断図
  6
Continuous
 62
     7
100
AcDbVertex
100
AcDb3dPolylineVertex
 10
1.794248724609862
 20
108.6881897445698
 30
0.0
 70
    32
  0
VERTEX
  5
12B
330
122
100
AcDbEntity
  8
縦断図
  6
Continuous
 62
     7
100
AcDbVertex
100
AcDb3dPolylineVertex
 10
1.821319907394212
 20
108.8721791303683
 30
0.0
 70
    32
  0
VERTEX
  5
12C
330
122
100
AcDbEntity
  8
縦断図
  6
Continuous
 62
     7
100
AcDbVertex
100
AcDb3dPolylineVertex
 10
1.88035274893663
 20
108.9571562212935
 30
0.0
 70
    32
  0
VERTEX
  5
12D
330
122
100
AcDbEntity
  8
縦断図
  6
Continuous
 62
     7
100
AcDbVertex
100
AcDb3dPolylineVertex
 10
1.867446800359005
 20
109.2001610338676
 30
0.0
 70
    32
  0
SEQEND
  5
12E
330
122
100
AcDbEntity
  8
縦断図
  6
Continuous
 62
     7
370
    13
  0
POLYLINE
  5
12F
330
1F
100
AcDbEntity
  8
縦断図
  6
Continuous
 62
     7
370
    13
100
AcDb3dPolyline
 66
     1
 10
0.0
 20
0.0
 30
0.0
 70
     8
  0
VERTEX
  5
130
330
12F
100
AcDbEntity
  8
縦断図
  6
Continuous
 62
     7
100
AcDbVertex
100
AcDb3dPolylineVertex
 10
2.083296159149103
 20
107.5379588587261
 30
0.0
 70
    32
  0
VERTEX
  5
131
330
12F
100
AcDbEntity
  8
縦断図
  6
Continuous
 62
     7
100
AcDbVertex
100
AcDb3dPolylineVertex
 10
2.075097420236983
 20
107.3452415648096
 30
0.0
 70
    32
  0
VERTEX
  5
132
330
12F
100
AcDbEntity
  8
縦断図
  6
Continuous
 62
     7
100
AcDbVertex
100
AcDb3dPolylineVertex
 10
2.072997190376437
 20
107.0862425715353
 30
0.0
 70
    32
  0
VERTEX
  5
133
330
12F
100
AcDbEntity
  8
縦断図
  6
Continuous
 62
     7
100
AcDbVertex
100
AcDb3dPolylineVertex
 10
2.076990994865017
 20
107.0702410379336
 30
0.0
 70
    32
  0
VERTEX
  5
134
330
12F
100
AcDbEntity
  8
縦断図
  6
Continuous
 62
     7
100
AcDbVertex
100
AcDb3dPolylineVertex
 10
2.097992523973755
 20
107.074232907448
 30
0.0
 70
    32
  0
VERTEX
  5
135
330
12F
100
AcDbEntity
  8
縦断図
  6
Continuous
 62
     7
100
AcDbVertex
100
AcDb3dPolylineVertex
 10
2.110999091203936
 20
107.0912278612393
 30
0.0
 70
    32
  0
VERTEX
  5
136
330
12F
100
AcDbEntity
  8
縦断図
  6
Continuous
 62
     7
100
AcDbVertex
100
AcDb3dPolylineVertex
 10
2.114990960718387
 20
107.0702263321305
 30
0.0
 70
    32
  0
VERTEX
  5
137
330
12F
100
AcDbEntity
  8
縦断図
  6
Continuous
 62
     7
100
AcDbVertex
100
AcDb3dPolylineVertex
 10
2.095953052299567
 20
106.9722337730943
 30
0.0
 70
    32
  0
VERTEX
  5
138
330
12F
100
AcDbEntity
  8
縦断図
  6
Continuous
 62
     7
100
AcDbVertex
100
AcDb3dPolylineVertex
 10
2.106947624487589
 20
106.9582295287316
 30
0.0
 70
    32
  0
VERTEX
  5
139
330
12F
100
AcDbEntity
  8
縦断図
  6
Continuous
 62
     7
100
AcDbVertex
100
AcDb3dPolylineVertex
 10
2.132948375113784
 20
106.9602194650692
 30
0.0
 70
    32
  0
VERTEX
  5
13A
330
12F
100
AcDbEntity
  8
縦断図
  6
Continuous
 62
     7
100
AcDbVertex
100
AcDb3dPolylineVertex
 10
2.118906979248599
 20
106.8532249791463
 30
0.0
 70
    32
  0
VERTEX
  5
13B
330
12F
100
AcDbEntity
  8
縦断図
  6
Continuous
 62
     7
100
AcDbVertex
100
AcDb3dPolylineVertex
 10
2.108884929529967
 20
106.7962289003144
 30
0.0
 70
    32
  0
VERTEX
  5
13C
330
12F
100
AcDbEntity
  8
縦断図
  6
Continuous
 62
     7
100
AcDbVertex
100
AcDb3dPolylineVertex
 10
2.12387098423762
 20
106.7602231277415
 30
0.0
 70
    32
  0
VERTEX
  5
13D
330
12F
100
AcDbEntity
  8
縦断図
  6
Continuous
 62
     7
100
AcDbVertex
100
AcDb3dPolylineVertex
 10
2.149871347868952
 20
106.7612130649777
 30
0.0
 70
    32
  0
VERTEX
  5
13E
330
12F
100
AcDbEntity
  8
縦断図
  6
Continuous
 62
     7
100
AcDbVertex
100
AcDb3dPolylineVertex
 10
2.147900761272318
 20
106.8372137706741
 30
0.0
 70
    32
  0
VERTEX
  5
13F
330
12F
100
AcDbEntity
  8
縦断図
  6
Continuous
 62
     7
100
AcDbVertex
100
AcDb3dPolylineVertex
 10
2.15192552534625
 20
106.9012121651848
 30
0.0
 70
    32
  0
VERTEX
  5
140
330
12F
100
AcDbEntity
  8
縦断図
  6
Continuous
 62
     7
100
AcDbVertex
100
AcDb3dPolylineVertex
 10
2.136990553954515
 20
107.0692178191431
 30
0.0
 70
    32
  0
VERTEX
  5
141
330
12F
100
AcDbEntity
  8
縦断図
  6
Continuous
 62
     7
100
AcDbVertex
100
AcDb3dPolylineVertex
 10
2.143994417612536
 20
107.0792151011934
 30
0.0
 70
    32
  0
VERTEX
  5
142
330
12F
100
AcDbEntity
  8
縦断図
  6
Continuous
 62
     7
100
AcDbVertex
100
AcDb3dPolylineVertex
 10
2.132055186581987
 20
107.2362196040519
 30
0.0
 70
    32
  0
VERTEX
  5
143
330
12F
100
AcDbEntity
  8
縦断図
  6
Continuous
 62
     7
100
AcDbVertex
100
AcDb3dPolylineVertex
 10
2.083296159149103
 20
107.5379588587261
 30
0.0
 70
    32
  0
SEQEND
  5
144
330
12F
100
AcDbEntity
  8
縦断図
  6
Continuous
 62
     7
370
    13
  0
POLYLINE
  5
145
330
1F
100
AcDbEntity
  8
縦断図
  6
Continuous
 62
     7
370
    13
100
AcDb3dPolyline
 66
     1
 10
0.0
 20
0.0
 30
0.0
 70
     8
  0
VERTEX
  5
146
330
145
100
AcDbEntity
  8
縦断図
  6
Continuous
 62
     7
100
AcDbVertex
100
AcDb3dPolylineVertex
 10
2.286296159149103
 20
108.3917042834422
 30
0.0
 70
    32
  0
VERTEX
  5
147
330
145
100
AcDbEntity
  8
縦断図
  6
Continuous
 62
     7
100
AcDbVertex
100
AcDb3dPolylineVertex
 10
2.279032608789166
 20
107.289239293162
 30
0.0
 70
    32
  0
VERTEX
  5
148
330
145
100
AcDbEntity
  8
縦断図
  6
Continuous
 62
     7
100
AcDbVertex
100
AcDb3dPolylineVertex
 10
2.252999737593115
 20
107.2042494314078
 30
0.0
 70
    32
  0
VERTEX
  5
149
330
145
100
AcDbEntity
  8
縦断図
  6
Continuous
 62
     7
100
AcDbVertex
100
AcDb3dPolylineVertex
 10
2.250939368198782
 20
107.0482503455783
 30
0.0
 70
    32
  0
VERTEX
  5
14A
330
145
100
AcDbEntity
  8
縦断図
  6
Continuous
 62
     7
100
AcDbVertex
100
AcDb3dPolylineVertex
 10
2.283933146628073
 20
107.0322375891268
 30
0.0
 70
    32
  0
VERTEX
  5
14B
330
145
100
AcDbEntity
  8
縦断図
  6
Continuous
 62
     7
100
AcDbVertex
100
AcDb3dPolylineVertex
 10
2.257040597042973
 20
106.9163383648101
 30
0.0
 70
    32
  0
VERTEX
  5
14C
330
145
100
AcDbEntity
  8
縦断図
  6
Continuous
 62
     7
100
AcDbVertex
100
AcDb3dPolylineVertex
 10
2.278851108219762
 20
106.820239714603
 30
0.0
 70
    32
  0
VERTEX
  5
14D
330
145
100
AcDbEntity
  8
縦断図
  6
Continuous
 62
     7
100
AcDbVertex
100
AcDb3dPolylineVertex
 10
2.302830962922943
 20
106.7682304734543
 30
0.0
 70
    32
  0
VERTEX
  5
14E
330
145
100
AcDbEntity
  8
縦断図
  6
Continuous
 62
     7
100
AcDbVertex
100
AcDb3dPolylineVertex
 10
2.321827849891118
 20
106.7602231277415
 30
0.0
 70
    32
  0
VERTEX
  5
14F
330
145
100
AcDbEntity
  8
縦断図
  6
Continuous
 62
     7
100
AcDbVertex
100
AcDb3dPolylineVertex
 10
2.352841366853283
 20
106.7952110994514
 30
0.0
 70
    32
  0
VERTEX
  5
150
330
145
100
AcDbEntity
  8
縦断図
  6
Continuous
 62
     7
100
AcDbVertex
100
AcDb3dPolylineVertex
 10
2.325875446659289
 20
106.8832214692351
 30
0.0
 70
    32
  0
VERTEX
  5
151
330
145
100
AcDbEntity
  8
縦断図
  6
Continuous
 62
     7
100
AcDbVertex
100
AcDb3dPolylineVertex
 10
2.3159187990648
 20
106.9952252385407
 30
0.0
 70
    32
  0
VERTEX
  5
152
330
145
100
AcDbEntity
  8
縦断図
  6
Continuous
 62
     7
100
AcDbVertex
100
AcDb3dPolylineVertex
 10
2.306032197532289
 20
107.2882288452006
 30
0.0
 70
    32
  0
VERTEX
  5
153
330
145
100
AcDbEntity
  8
縦断図
  6
Continuous
 62
     7
100
AcDbVertex
100
AcDb3dPolylineVertex
 10
2.286296159149103
 20
108.3917042834422
 30
0.0
 70
    32
  0
SEQEND
  5
154
330
145
100
AcDbEntity
  8
縦断図
  6
Continuous
 62
     7
370
    13
  0
POLYLINE
  5
155
330
1F
100
AcDbEntity
  8
縦断図
  6
Continuous
 62
     7
370
    13
100
AcDb3dPolyline
 66
     1
 10
0.0
 20
0.0
 30
0.0
 70
     8
  0
VERTEX
  5
156
330
155
100
AcDbEntity
  8
縦断図
  6
Continuous
 62
     7
100
AcDbVertex
100
AcDb3dPolylineVertex
 10
2.407906332559932
 20
106.8065506617083
 30
0.0
 70
    32
  0
VERTEX
  5
157
330
155
100
AcDbEntity
  8
縦断図
  6
Continuous
 62
     7
100
AcDbVertex
100
AcDb3dPolylineVertex
 10
2.585907333594488
 20
106.809481773935
 30
0.0
 70
    32
  0
VERTEX
  5
158
330
155
100
AcDbEntity
  8
縦断図
  6
Continuous
 62
     7
100
AcDbVertex
100
AcDb3dPolylineVertex
 10
2.706916125745323
 20
106.8324349268944
 30
0.0
 70
    32
  0
VERTEX
  5
159
330
155
100
AcDbEntity
  8
縦断図
  6
Continuous
 62
     7
100
AcDbVertex
100
AcDb3dPolylineVertex
 10
2.91493103163549
 20
106.8713543969272
 30
0.0
 70
    32
  0
VERTEX
  5
15A
330
155
100
AcDbEntity
  8
縦断図
  6
Continuous
 62
     7
100
AcDbVertex
100
AcDb3dPolylineVertex
 10
3.140947856325056
 20
106.9152668965602
 30
0.0
 70
    32
  0
VERTEX
  5
15B
330
155
100
AcDbEntity
  8
縦断図
  6
Continuous
 62
     7
100
AcDbVertex
100
AcDb3dPolylineVertex
 10
3.321962786477272
 20
106.9541968154531
 30
0.0
 70
    32
  0
VERTEX
  5
15C
330
155
100
AcDbEntity
  8
縦断図
  6
Continuous
 62
     7
100
AcDbVertex
100
AcDb3dPolylineVertex
 10
3.386970467964986
 20
106.974171642818
 30
0.0
 70
    32
  0
VERTEX
  5
15D
330
155
100
AcDbEntity
  8
縦断図
  6
Continuous
 62
     7
100
AcDbVertex
100
AcDb3dPolylineVertex
 10
3.685001159769143
 20
107.0540562464748
 30
0.0
 70
    32
  0
VERTEX
  5
15E
330
155
100
AcDbEntity
  8
縦断図
  6
Continuous
 62
     7
100
AcDbVertex
100
AcDb3dPolylineVertex
 10
4.048045724978071
 20
107.1699156631191
 30
0.0
 70
    32
  0
SEQEND
  5
15F
330
155
100
AcDbEntity
  8
縦断図
  6
Continuous
 62
     7
370
    13
  0
POLYLINE
  5
160
330
1F
100
AcDbEntity
  8
縦断図
  6
Continuous
 62
     7
370
    13
100
AcDb3dPolyline
 66
     1
 10
0.0
 20
0.0
 30
0.0
 70
     8
  0
VERTEX
  5
161
330
160
100
AcDbEntity
  8
縦断図
  6
Continuous
 62
     7
100
AcDbVertex
100
AcDb3dPolylineVertex
 10
4.217068792804564
 20
107.2298502070793
 30
0.0
 70
    32
  0
VERTEX
  5
162
330
160
100
AcDbEntity
  8
縦断図
  6
Continuous
 62
     7
100
AcDbVertex
100
AcDb3dPolylineVertex
 10
4.469106491850798
 20
107.327752596323
 30
0.0
 70
    32
  0
VERTEX
  5
163
330
160
100
AcDbEntity
  8
縦断図
  6
Continuous
 62
     7
100
AcDbVertex
100
AcDb3dPolylineVertex
 10
4.71614767834339
 20
107.4346569124534
 30
0.0
 70
    32
  0
VERTEX
  5
164
330
160
100
AcDbEntity
  8
縦断図
  6
Continuous
 62
     7
100
AcDbVertex
100
AcDb3dPolylineVertex
 10
5.085213909870518
 20
107.6065139568074
 30
0.0
 70
    32
  0
VERTEX
  5
165
330
160
100
AcDbEntity
  8
縦断図
  6
Continuous
 62
     7
100
AcDbVertex
100
AcDb3dPolylineVertex
 10
5.389277877837415
 20
107.7723961612162
 30
0.0
 70
    32
  0
VERTEX
  5
166
330
160
100
AcDbEntity
  8
縦断図
  6
Continuous
 62
     7
100
AcDbVertex
100
AcDb3dPolylineVertex
 10
5.700347644436377
 20
107.9532756431823
 30
0.0
 70
    32
  0
VERTEX
  5
167
330
160
100
AcDbEntity
  8
縦断図
  6
Continuous
 62
     7
100
AcDbVertex
100
AcDb3dPolylineVertex
 10
5.939408574853417
 20
108.1111830094429
 30
0.0
 70
    32
  0
VERTEX
  5
168
330
160
100
AcDbEntity
  8
縦断図
  6
Continuous
 62
     7
100
AcDbVertex
100
AcDb3dPolylineVertex
 10
6.171468737570923
 20
108.2670930864645
 30
0.0
 70
    32
  0
VERTEX
  5
169
330
160
100
AcDbEntity
  8
縦断図
  6
Continuous
 62
     7
100
AcDbVertex
100
AcDb3dPolylineVertex
 10
6.424537008309166
 20
108.4439950177244
 30
0.0
 70
    32
  0
VERTEX
  5
16A
330
160
100
AcDbEntity
  8
縦断図
  6
Continuous
 62
     7
100
AcDbVertex
100
AcDb3dPolylineVertex
 10
6.6015945114857
 20
108.592926385751
 30
0.0
 70
    32
  0
VERTEX
  5
16B
330
160
100
AcDbEntity
  8
縦断図
  6
Continuous
 62
     7
100
AcDbVertex
100
AcDb3dPolylineVertex
 10
6.770653956825086
 20
108.7468608452433
 30
0.0
 70
    32
  0
VERTEX
  5
16C
330
160
100
AcDbEntity
  8
縦断図
  6
Continuous
 62
     7
100
AcDbVertex
100
AcDb3dPolylineVertex
 10
6.917708777995713
 20
108.8888038294047
 30
0.0
 70
    32
  0
VERTEX
  5
16D
330
160
100
AcDbEntity
  8
縦断図
  6
Continuous
 62
     7
100
AcDbVertex
100
AcDb3dPolylineVertex
 10
7.07576513726109
 20
109.0347425530287
 30
0.0
 70
    32
  0
VERTEX
  5
16E
330
160
100
AcDbEntity
  8
縦断図
  6
Continuous
 62
     7
100
AcDbVertex
100
AcDb3dPolylineVertex
 10
7.212818419438452
 20
109.1726894107326
 30
0.0
 70
    32
  0
VERTEX
  5
16F
330
160
100
AcDbEntity
  8
縦断図
  6
Continuous
 62
     7
100
AcDbVertex
100
AcDb3dPolylineVertex
 10
7.348877120441799
 20
109.324636642851
 30
0.0
 70
    32
  0
VERTEX
  5
170
330
160
100
AcDbEntity
  8
縦断図
  6
Continuous
 62
     7
100
AcDbVertex
100
AcDb3dPolylineVertex
 10
7.51394779222527
 20
109.5075726242633
 30
0.0
 70
    32
  0
VERTEX
  5
171
330
160
100
AcDbEntity
  8
縦断図
  6
Continuous
 62
     7
100
AcDbVertex
100
AcDb3dPolylineVertex
 10
7.688022712864395
 20
109.7015051128376
 30
0.0
 70
    32
  0
VERTEX
  5
172
330
160
100
AcDbEntity
  8
縦断図
  6
Continuous
 62
     7
100
AcDbVertex
100
AcDb3dPolylineVertex
 10
7.836091851944698
 20
109.8804476767562
 30
0.0
 70
    32
  0
VERTEX
  5
173
330
160
100
AcDbEntity
  8
縦断図
  6
Continuous
 62
     7
100
AcDbVertex
100
AcDb3dPolylineVertex
 10
7.970160616610485
 20
110.0583956595008
 30
0.0
 70
    32
  0
VERTEX
  5
174
330
160
100
AcDbEntity
  8
縦断図
  6
Continuous
 62
     7
100
AcDbVertex
100
AcDb3dPolylineVertex
 10
8.089225137812242
 20
110.2253494570521
 30
0.0
 70
    32
  0
VERTEX
  5
175
330
160
100
AcDbEntity
  8
縦断図
  6
Continuous
 62
     7
100
AcDbVertex
100
AcDb3dPolylineVertex
 10
8.208288111034722
 20
110.3883032581979
 30
0.0
 70
    32
  0
VERTEX
  5
176
330
160
100
AcDbEntity
  8
縦断図
  6
Continuous
 62
     7
100
AcDbVertex
100
AcDb3dPolylineVertex
 10
8.327354180215742
 20
110.5592570521549
 30
0.0
 70
    32
  0
VERTEX
  5
177
330
160
100
AcDbEntity
  8
縦断図
  6
Continuous
 62
     7
100
AcDbVertex
100
AcDb3dPolylineVertex
 10
8.398039641025505
 20
110.6613593654455
 30
0.0
 70
    32
  0
VERTEX
  5
178
330
160
100
AcDbEntity
  8
縦断図
  6
Continuous
 62
     7
100
AcDbVertex
100
AcDb3dPolylineVertex
 10
8.4464233453553
 20
110.7382108389232
 30
0.0
 70
    32
  0
VERTEX
  5
179
330
160
100
AcDbEntity
  8
縦断図
  6
Continuous
 62
     7
100
AcDbVertex
100
AcDb3dPolylineVertex
 10
8.537481699800594
 20
110.889175486707
 30
0.0
 70
    32
  0
VERTEX
  5
17A
330
160
100
AcDbEntity
  8
縦断図
  6
Continuous
 62
     7
100
AcDbVertex
100
AcDb3dPolylineVertex
 10
8.60452769197805
 20
111.0081494511214
 30
0.0
 70
    32
  0
VERTEX
  5
17B
330
160
100
AcDbEntity
  8
縦断図
  6
Continuous
 62
     7
100
AcDbVertex
100
AcDb3dPolylineVertex
 10
8.681579480091784
 20
111.1421195321088
 30
0.0
 70
    32
  0
VERTEX
  5
17C
330
160
100
AcDbEntity
  8
縦断図
  6
Continuous
 62
     7
100
AcDbVertex
100
AcDb3dPolylineVertex
 10
8.743624315777723
 20
111.2580954341931
 30
0.0
 70
    32
  0
VERTEX
  5
17D
330
160
100
AcDbEntity
  8
縦断図
  6
Continuous
 62
     7
100
AcDbVertex
100
AcDb3dPolylineVertex
 10
8.759633976270688
 20
111.2830892198111
 30
0.0
 70
    32
  0
VERTEX
  5
17E
330
160
100
AcDbEntity
  8
縦断図
  6
Continuous
 62
     7
100
AcDbVertex
100
AcDb3dPolylineVertex
 10
8.77362893275771
 20
111.2700838135654
 30
0.0
 70
    32
  0
VERTEX
  5
17F
330
160
100
AcDbEntity
  8
縦断図
  6
Continuous
 62
     7
100
AcDbVertex
100
AcDb3dPolylineVertex
 10
8.912633451790839
 20
111.2820300105027
 30
0.0
 70
    32
  0
VERTEX
  5
180
330
160
100
AcDbEntity
  8
縦断図
  6
Continuous
 62
     7
100
AcDbVertex
100
AcDb3dPolylineVertex
 10
9.03063837668931
 20
111.2949843334325
 30
0.0
 70
    32
  0
VERTEX
  5
181
330
160
100
AcDbEntity
  8
縦断図
  6
Continuous
 62
     7
100
AcDbVertex
100
AcDb3dPolylineVertex
 10
9.283648598204877
 20
111.3218863994816
 30
0.0
 70
    32
  0
VERTEX
  5
182
330
160
100
AcDbEntity
  8
縦断図
  6
Continuous
 62
     7
100
AcDbVertex
100
AcDb3dPolylineVertex
 10
9.631669570208864
 20
111.3767516758624
 30
0.0
 70
    32
  0
SEQEND
  5
183
330
160
100
AcDbEntity
  8
縦断図
  6
Continuous
 62
     7
370
    13
  0
LINE
  5
184
330
1F
100
AcDbEntity
  8
縦断図
  6
Continuous
 62
     7
370
    13
100
AcDbLine
 10
-5.899580021679299
 20
113.285760769342
 30
0.0
 11
-5.930359019782104
 21
113.285760769342
 31
0.0
  0
LINE
  5
185
330
1F
100
AcDbEntity
  8
縦断図
  6
Continuous
 62
     7
370
    13
100
AcDbLine
 10
-5.681668594812344
 20
113.0159279130993
 30
0.0
 11
-5.731668594812348
 21
113.0159279130993
 31
0.0
  0
LINE
  5
186
330
1F
100
AcDbEntity
  8
縦断図
  6
Continuous
 62
     7
370
    13
100
AcDbLine
 10
-5.681668594812344
 20
113.0159279130993
 30
0.0
 11
-5.681668594812344
 21
113.0449275000453
 31
0.0
  0
LINE
  5
187
330
1F
100
AcDbEntity
  8
縦断図
  6
Continuous
 62
     7
370
    13
100
AcDbLine
 10
-5.731668594812348
 20
113.0159279130993
 30
0.0
 11
-5.731668594812348
 21
113.0449275000453
 31
0.0
  0
LINE
  5
188
330
1F
100
AcDbEntity
  8
縦断図
  6
Continuous
 62
     7
370
    13
100
AcDbLine
 10
-5.536247358570872
 20
113.0562458015808
 30
0.0
 11
-5.536247358570872
 21
113.0262458015808
 31
0.0
  0
LINE
  5
189
330
1F
100
AcDbEntity
  8
縦断図
  6
Continuous
 62
     7
370
    13
100
AcDbLine
 10
-5.486247358570871
 20
113.0562310957777
 30
0.0
 11
-5.486247358570871
 21
113.0262310957777
 31
0.0
  0
LINE
  5
18A
330
1F
100
AcDbEntity
  8
縦断図
  6
Continuous
 62
     7
370
    13
100
AcDbLine
 10
-5.536247358570872
 20
113.0262458015808
 30
0.0
 11
-5.486247358570871
 21
113.0262458015808
 31
0.0
  0
LINE
  5
18B
330
1F
100
AcDbEntity
  8
縦断図
  6
Continuous
 62
     7
370
    13
100
AcDbLine
 10
-5.327836098227202
 20
113.0065467453504
 30
0.0
 11
-5.327836098227202
 21
112.9765467453503
 31
0.0
  0
LINE
  5
18C
330
1F
100
AcDbEntity
  8
縦断図
  6
Continuous
 62
     7
370
    13
100
AcDbLine
 10
-5.327836098227202
 20
112.9765467453503
 30
0.0
 11
-5.277836098227203
 21
112.9765467453503
 31
0.0
  0
LINE
  5
18D
330
1F
100
AcDbEntity
  8
縦断図
  6
Continuous
 62
     7
370
    13
100
AcDbLine
 10
-5.277836098227203
 20
113.0065467453504
 30
0.0
 11
-5.277836098227203
 21
112.9765467453503
 31
0.0
  0
LINE
  5
18E
330
1F
100
AcDbEntity
  8
縦断図
  6
Continuous
 62
     7
370
    13
100
AcDbLine
 10
-4.728452836954817
 20
113.0174906173413
 30
0.0
 11
-4.678452836954815
 21
113.0174906173413
 31
0.0
  0
LINE
  5
18F
330
1F
100
AcDbEntity
  8
縦断図
  6
Continuous
 62
     7
370
    13
100
AcDbLine
 10
-4.013451681677397
 20
111.1454365197657
 30
0.0
 11
-4.251470043563099
 21
111.1454365197657
 31
0.0
  0
CIRCLE
  5
190
330
1F
100
AcDbEntity
  8
縦断図
  6
Continuous
 62
     7
370
    13
100
AcDbCircle
 10
4.107041914012999
 20
106.4845319012977
 30
0.0
 40
0.0193304593894013
  0
LINE
  5
191
330
1F
100
AcDbEntity
  8
縦断図
  6
Continuous
 62
     7
370
    13
100
AcDbLine
 10
4.064810029858066
 20
106.5609096314514
 30
0.0
 11
4.066868196800229
 21
106.5609096314514
 31
0.0
  0
LINE
  5
192
330
1F
100
AcDbEntity
  8
縦断図
  6
Continuous
 62
     7
370
    13
100
AcDbLine
 10
4.064810029858066
 20
106.5609096314514
 30
0.0
 11
4.147867175232225
 21
106.5609096314514
 31
0.0
  0
LINE
  5
193
330
1F
100
AcDbEntity
  8
縦断図
  6
Continuous
 62
     7
370
    13
100
AcDbLine
 10
4.147867175232225
 20
106.5609096314514
 30
0.0
 11
4.147867175232225
 21
106.6609096314514
 31
0.0
  0
LINE
  5
194
330
1F
100
AcDbEntity
  8
縦断図
  6
Continuous
 62
     7
370
    13
100
AcDbLine
 10
4.064810029858066
 20
106.5609096314514
 30
0.0
 11
4.064810029858066
 21
106.6609096314514
 31
0.0
  0
LINE
  5
195
330
1F
100
AcDbEntity
  8
縦断図
  6
Continuous
 62
     7
370
    13
100
AcDbLine
 10
1.375708028739719
 20
112.2582738388457
 30
0.0
 11
1.325708028739719
 21
112.2582738388457
 31
0.0
  0
LINE
  5
196
330
1F
100
AcDbEntity
  8
縦断図
  6
Continuous
 62
     7
370
    13
100
AcDbLine
 10
1.375708028739719
 20
112.2582738388457
 30
0.0
 11
1.375708028739719
 21
112.2882738388457
 31
0.0
  0
LINE
  5
197
330
1F
100
AcDbEntity
  8
縦断図
  6
Continuous
 62
     7
370
    13
100
AcDbLine
 10
1.325708028739719
 20
112.2582738388457
 30
0.0
 11
1.325708028739719
 21
112.2882738388457
 31
0.0
  0
LINE
  5
198
330
1F
100
AcDbEntity
  8
縦断図
  6
Continuous
 62
     7
370
    13
100
AcDbLine
 10
-0.3177038408508928
 20
112.4082977627366
 30
0.0
 11
-0.3177038408508928
 21
113.8649359794484
 31
0.0
  0
LINE
  5
199
330
1F
100
AcDbEntity
  8
縦断図
  6
Continuous
 62
     7
370
    13
100
AcDbLine
 10
-0.0917038408508937
 20
112.4190159461194
 30
0.0
 11
-0.0917038408508937
 21
113.8649359794484
 31
0.0
  0
LINE
  5
19A
330
1F
100
AcDbEntity
  8
縦断図
  6
Continuous
 62
     7
370
    13
100
AcDbLine
 10
-0.6757480277514318
 20
112.9392187952265
 30
0.0
 11
-0.7367449009910345
 21
112.9392187952265
 31
0.0
  0
LINE
  5
19B
330
1F
100
AcDbEntity
  8
縦断図
  6
Continuous
 62
     7
370
    13
100
AcDbLine
 10
-0.8544414921809427
 20
112.2236512191002
 30
0.0
 11
-0.8544414921809427
 21
112.2536512191002
 31
0.0
  0
LINE
  5
19C
330
1F
100
AcDbEntity
  8
縦断図
  6
Continuous
 62
     7
370
    13
100
AcDbLine
 10
-0.8544414921809427
 20
112.2236512191002
 30
0.0
 11
-0.7470217758890065
 21
112.2236512191002
 31
0.0
  0
LINE
  5
19D
330
1F
100
AcDbEntity
  8
縦断図
  6
Continuous
 62
     7
370
    13
100
AcDbLine
 10
-1.58915358642713
 20
112.800990348627
 30
0.0
 11
-1.53915358642713
 21
112.800990348627
 31
0.0
  0
LINE
  5
19E
330
1F
100
AcDbEntity
  8
縦断図
  6
Continuous
 62
     7
370
    13
100
AcDbLine
 10
-1.58915358642713
 20
112.800990348627
 30
0.0
 11
-1.58915358642713
 21
112.825510963043
 31
0.0
  0
LINE
  5
19F
330
1F
100
AcDbEntity
  8
縦断図
  6
Continuous
 62
     7
370
    13
100
AcDbLine
 10
-1.53915358642713
 20
112.800990348627
 30
0.0
 11
-1.53915358642713
 21
112.825510963043
 31
0.0
  0
LINE
  5
1A0
330
1F
100
AcDbEntity
  8
縦断図
  6
Continuous
 62
     7
370
    13
100
AcDbLine
 10
-1.792587564402979
 20
112.8021306787554
 30
0.0
 11
-1.742587564402978
 21
112.8021306787554
 31
0.0
  0
LINE
  5
1A1
330
1F
100
AcDbEntity
  8
縦断図
  6
Continuous
 62
     7
370
    13
100
AcDbLine
 10
-1.742587564402978
 20
112.8021306787554
 30
0.0
 11
-1.742587564402982
 21
112.8271306787554
 31
0.0
  0
LINE
  5
1A2
330
1F
100
AcDbEntity
  8
縦断図
  6
Continuous
 62
     7
370
    13
100
AcDbLine
 10
-1.792587564402979
 20
112.8021306787554
 30
0.0
 11
-1.792587564402979
 21
112.8271306787554
 31
0.0
  0
LINE
  5
1A3
330
1F
100
AcDbEntity
  8
縦断図
  6
Continuous
 62
     7
370
    13
100
AcDbLine
 10
-1.886850267169436
 20
112.5952083782711
 30
0.0
 11
-2.224703840850893
 21
112.5952083782711
 31
0.0
  0
LINE
  5
1A4
330
1F
100
AcDbEntity
  8
縦断図
  6
Continuous
 62
     7
370
    13
100
AcDbLine
 10
-2.779968628804941
 20
113.0506169746913
 30
0.0
 11
-2.779968628804941
 21
113.1006169746913
 31
0.0
  0
LINE
  5
1A5
330
1F
100
AcDbEntity
  8
縦断図
  6
Continuous
 62
     7
370
    13
100
AcDbLine
 10
-2.689968628804937
 20
113.0506169746913
 30
0.0
 11
-2.689968628804937
 21
113.1006169746913
 31
0.0
  0
LINE
  5
1A6
330
1F
100
AcDbEntity
  8
縦断図
  6
Continuous
 62
     7
370
    13
100
AcDbLine
 10
-3.049614391984218
 20
107.7129957733829
 30
0.0
 11
-2.861307024508331
 21
107.6629789299982
 31
0.0
  0
LINE
  5
1A7
330
1F
100
AcDbEntity
  8
縦断図
  6
Continuous
 62
     7
370
    13
100
AcDbLine
 10
-3.049614391984218
 20
107.7129957733829
 30
0.0
 11
-3.024786438966807
 21
107.8245752714655
 31
0.0
  0
LINE
  5
1A8
330
1F
100
AcDbEntity
  8
縦断図
  6
Continuous
 62
     7
370
    13
100
AcDbLine
 10
-3.024786438966807
 20
107.8245752714655
 30
0.0
 11
-2.917408615700214
 21
107.8284563976077
 31
0.0
  0
LINE
  5
1A9
330
1F
100
AcDbEntity
  8
縦断図
  6
Continuous
 62
     7
370
    13
100
AcDbLine
 10
-3.65350427602359
 20
112.979110288127
 30
0.0
 11
-3.65350427602359
 21
112.949110288127
 31
0.0
  0
LINE
  5
1AA
330
1F
100
AcDbEntity
  8
縦断図
  6
Continuous
 62
     7
370
    13
100
AcDbLine
 10
-3.65350427602359
 20
112.949110288127
 30
0.0
 11
-3.70350427602359
 21
112.949110288127
 31
0.0
  0
LINE
  5
1AB
330
1F
100
AcDbEntity
  8
縦断図
  6
Continuous
 62
     7
370
    13
100
AcDbLine
 10
-3.70350427602359
 20
112.949110288127
 30
0.0
 11
-3.703504276023594
 21
112.979110288127
 31
0.0
  0
LINE
  5
1AC
330
1F
100
AcDbEntity
  8
縦断図
  6
Continuous
 62
     7
370
    13
100
AcDbLine
 10
-4.678452836954815
 20
113.0174906173413
 30
0.0
 11
-4.678452836954815
 21
113.0474906173413
 31
0.0
  0
LINE
  5
1AD
330
1F
100
AcDbEntity
  8
縦断図
  6
Continuous
 62
     7
370
    13
100
AcDbLine
 10
-4.728452836954817
 20
113.0174906173413
 30
0.0
 11
-4.728452836954817
 21
113.0474906173413
 31
0.0
  0
LINE
  5
1AE
330
1F
100
AcDbEntity
  8
縦断図
  6
Continuous
 62
     7
370
    13
100
AcDbLine
 10
-4.530257683751373
 20
108.7472476369784
 30
0.0
 11
-4.430257683751371
 21
108.7472476369784
 31
0.0
  0
LINE
  5
1AF
330
1F
100
AcDbEntity
  8
縦断図
  6
Continuous
 62
     7
370
    13
100
AcDbLine
 10
-4.430257683751371
 20
108.7472476369784
 30
0.0
 11
-4.430257683751371
 21
111.4672476369784
 31
0.0
  0
LINE
  5
1B0
330
1F
100
AcDbEntity
  8
縦断図
  6
Continuous
 62
     7
370
    13
100
AcDbLine
 10
-4.530257683751373
 20
108.7472476369784
 30
0.0
 11
-4.530257683751373
 21
112.3472476369784
 31
0.0
  0
LINE
  5
1B1
330
1F
100
AcDbEntity
  8
縦断図
  6
Continuous
 62
     7
370
    13
100
AcDbLine
 10
-4.530257683751373
 20
112.3472476369784
 30
0.0
 11
-4.090629425109746
 21
112.3472476369784
 31
0.0
  0
LINE
  5
1B2
330
1F
100
AcDbEntity
  8
縦断図
  6
Continuous
 62
     7
370
    13
100
AcDbLine
 10
-4.090629425109746
 20
112.3472476369784
 30
0.0
 11
-4.090629425109746
 21
112.2672476369784
 31
0.0
  0
LINE
  5
1B3
330
1F
100
AcDbEntity
  8
縦断図
  6
Continuous
 62
     7
370
    13
100
AcDbLine
 10
-4.090629425109746
 20
112.2672476369784
 30
0.0
 11
-4.430257683751371
 21
112.2672476369784
 31
0.0
  0
LINE
  5
1B4
330
1F
100
AcDbEntity
  8
縦断図
  6
Continuous
 62
     7
370
    13
100
AcDbLine
 10
-4.090629425109746
 20
111.5472476369784
 30
0.0
 11
-4.430257683751371
 21
111.5472476369784
 31
0.0
  0
LINE
  5
1B5
330
1F
100
AcDbEntity
  8
縦断図
  6
Continuous
 62
     7
370
    13
100
AcDbLine
 10
-4.090629425109746
 20
111.5472476369784
 30
0.0
 11
-4.090629425109746
 21
111.4672476369784
 31
0.0
  0
LINE
  5
1B6
330
1F
100
AcDbEntity
  8
縦断図
  6
Continuous
 62
     7
370
    13
100
AcDbLine
 10
-4.090629425109746
 20
111.4672476369784
 30
0.0
 11
-4.430257683751371
 21
111.4672476369784
 31
0.0
  0
LINE
  5
1B7
330
1F
100
AcDbEntity
  8
縦断図
  6
Continuous
 62
     7
370
    13
100
AcDbLine
 10
-4.430257683751371
 20
111.5472476369784
 30
0.0
 11
-4.430257683751371
 21
112.2672476369784
 31
0.0
  0
LINE
  5
1B8
330
1F
100
AcDbEntity
  8
縦断図
  6
Continuous
 62
     7
370
    13
100
AcDbLine
 10
-4.299703840850897
 20
112.5877477447147
 30
0.0
 11
-4.299703840850897
 21
113.8649359794484
 31
0.0
  0
LINE
  5
1B9
330
1F
100
AcDbEntity
  8
縦断図
  6
Continuous
 62
     7
370
    13
100
AcDbLine
 10
-4.049703840850897
 20
112.5984659280975
 30
0.0
 11
-4.049703840850897
 21
113.8649359794484
 31
0.0
  0
LINE
  5
1BA
330
1F
100
AcDbEntity
  8
縦断図
  6
Continuous
 62
     7
370
    13
100
AcDbLine
 10
-0.0573888543075824
 20
112.1731952731746
 30
0.0
 11
-0.0573888543075824
 21
112.0931952731746
 31
0.0
  0
LINE
  5
1BB
330
1F
100
AcDbEntity
  8
縦断図
  6
Continuous
 62
     7
370
    13
100
AcDbLine
 10
-0.4973888543075837
 20
112.1731034973498
 30
0.0
 11
-0.4973888543075837
 21
108.4581034973498
 31
0.0
  0
LINE
  5
1BC
330
1F
100
AcDbEntity
  8
縦断図
  6
Continuous
 62
     7
370
    13
100
AcDbLine
 10
-0.0573888543075824
 20
112.1731952731746
 30
0.0
 11
-0.4973888543075837
 21
112.1731952731746
 31
0.0
  0
LINE
  5
1BD
330
1F
100
AcDbEntity
  8
縦断図
  6
Continuous
 62
     7
370
    13
100
AcDbLine
 10
-0.0573888543075824
 20
112.0931952731746
 30
0.0
 11
-0.3973888543075823
 21
112.0931952731746
 31
0.0
  0
LINE
  5
1BE
330
1F
100
AcDbEntity
  8
縦断図
  6
Continuous
 62
     7
370
    13
100
AcDbLine
 10
-0.4973888543075837
 20
108.4581034973498
 30
0.0
 11
-0.3973888543075823
 21
108.4581034973498
 31
0.0
  0
LINE
  5
1BF
330
1F
100
AcDbEntity
  8
縦断図
  6
Continuous
 62
     7
370
    13
100
AcDbLine
 10
-0.3973888543075823
 20
108.4581034973498
 30
0.0
 11
-0.3973888543075823
 21
111.2696429186369
 31
0.0
  0
LINE
  5
1C0
330
1F
100
AcDbEntity
  8
縦断図
  6
Continuous
 62
     7
370
    13
100
AcDbLine
 10
-0.3973888543075823
 20
111.3696429186369
 30
0.0
 11
-0.0573888543075824
 21
111.3696429186369
 31
0.0
  0
LINE
  5
1C1
330
1F
100
AcDbEntity
  8
縦断図
  6
Continuous
 62
     7
370
    13
100
AcDbLine
 10
-0.0573888543075824
 20
111.3696429186369
 30
0.0
 11
-0.0573888543075824
 21
111.2696429186369
 31
0.0
  0
LINE
  5
1C2
330
1F
100
AcDbEntity
  8
縦断図
  6
Continuous
 62
     7
370
    13
100
AcDbLine
 10
-0.0573888543075824
 20
111.2696429186369
 30
0.0
 11
-0.3973888543075823
 21
111.2696429186369
 31
0.0
  0
LINE
  5
1C3
330
1F
100
AcDbEntity
  8
縦断図
  6
Continuous
 62
     7
370
    13
100
AcDbLine
 10
-0.3973888543075823
 20
111.3696429186369
 30
0.0
 11
-0.3973888543075823
 21
112.0931952731746
 31
0.0
  0
LINE
  5
1C4
330
1F
100
AcDbEntity
  8
縦断図
  6
Continuous
 62
     7
370
    13
100
AcDbLine
 10
-0.3531244679742116
 20
107.0568306924747
 30
0.0
 11
-0.3531244679742116
 21
111.1964897160195
 31
0.0
  0
LINE
  5
1C5
330
1F
100
AcDbEntity
  8
縦断図
  6
Continuous
 62
     7
370
    13
100
AcDbLine
 10
0.7184945125900981
 20
112.8566452080991
 30
0.0
 11
0.668494512590101
 21
112.8566452080991
 31
0.0
  0
LINE
  5
1C6
330
1F
100
AcDbEntity
  8
縦断図
  6
Continuous
 62
     7
370
    13
100
AcDbLine
 10
0.668494512590101
 20
112.8566452080991
 30
0.0
 11
0.668494512590101
 21
112.8866452080991
 31
0.0
  0
LINE
  5
1C7
330
1F
100
AcDbEntity
  8
縦断図
  6
Continuous
 62
     7
370
    13
100
AcDbLine
 10
0.7184945125900981
 20
112.8566452080991
 30
0.0
 11
0.7184945125901017
 21
112.8866452080991
 31
0.0
  0
LINE
  5
1C8
330
1F
100
AcDbEntity
  8
縦断図
  6
Continuous
 62
     7
370
    13
100
AcDbLine
 10
1.666405959525882
 20
109.094238915077
 30
0.0
 11
1.867446800359005
 21
109.2001610338676
 31
0.0
  0
LINE
  5
1C9
330
1F
100
AcDbEntity
  8
縦断図
  6
Continuous
 62
     7
370
    13
100
AcDbLine
 10
4.048045724978071
 20
107.1699156631191
 30
0.0
 11
4.217068792804564
 21
107.2298502070793
 31
0.0
  0
LINE
  5
1CA
330
1F
100
AcDbEntity
  8
縦断図
  6
Continuous
 62
     7
370
    13
100
AcDbLine
 10
-6.981703840850903
 20
107.2844359794484
 30
0.0
 11
-7.309997131870901
 21
107.2844359794484
 31
0.0
  0
LINE
  5
1CB
330
1F
100
AcDbEntity
  8
縦断図
  6
Continuous
 62
     7
370
    13
100
AcDbLine
 10
-7.309997131870901
 20
107.2844359794484
 30
0.0
 11
-7.309997131870901
 21
106.3464359794484
 31
0.0
  0
LINE
  5
1CC
330
1F
100
AcDbEntity
  8
縦断図
  6
Continuous
 62
     7
370
    13
100
AcDbLine
 10
-7.309997131870901
 20
106.3464359794484
 30
0.0
 11
-7.538703840850896
 21
106.3464359794484
 31
0.0
  0
LINE
  5
1CD
330
1F
100
AcDbEntity
  8
縦断図
  6
Continuous
 62
     7
370
    13
100
AcDbLine
 10
-6.981703840850903
 20
107.2844359794484
 30
0.0
 11
-6.981703840850903
 21
107.9349359794484
 31
0.0
  0
LINE
  5
1CE
330
1F
100
AcDbEntity
  8
縦断図
  6
Continuous
 62
     7
370
    13
100
AcDbLine
 10
-6.401774410351495
 20
106.3949188388025
 30
0.0
 11
-6.3967038408509
 21
105.6449359794484
 31
0.0
  0
LINE
  5
1CF
330
1F
100
AcDbEntity
  8
縦断図
  6
Continuous
 62
     7
370
    13
100
AcDbLine
 10
0.4126797016298518
 20
116.2809453052819
 30
0.0
 11
0.4126797016298518
 21
116.1309453052819
 31
0.0
  0
LINE
  5
1D0
330
1F
100
AcDbEntity
  8
縦断図
  6
Continuous
 62
     7
370
    13
100
AcDbLine
 10
0.2126797016298489
 20
116.2664612747556
 30
0.0
 11
0.2126797016298489
 21
116.1164612747556
 31
0.0
  0
LINE
  5
1D1
330
1F
100
AcDbEntity
  8
縦断図
  6
Continuous
 62
     7
370
    13
100
AcDbLine
 10
0.2126797016298489
 20
116.1164612747556
 30
0.0
 11
0.4126797016298518
 21
116.1309453052819
 31
0.0
  0
LINE
  5
1D2
330
1F
100
AcDbEntity
  8
縦断図
  6
Continuous
 62
     7
370
    13
100
AcDbLine
 10
-2.025890231726112
 20
116.1043436985048
 30
0.0
 11
-2.025890231726112
 21
115.9543436985048
 31
0.0
  0
LINE
  5
1D3
330
1F
100
AcDbEntity
  8
縦断図
  6
Continuous
 62
     7
370
    13
100
AcDbLine
 10
-2.225890231726115
 20
116.0898596679784
 30
0.0
 11
-2.225890231726115
 21
115.9398596679784
 31
0.0
  0
LINE
  5
1D4
330
1F
100
AcDbEntity
  8
縦断図
  6
Continuous
 62
     7
370
    13
100
AcDbLine
 10
-2.225890231726115
 20
115.9398596679784
 30
0.0
 11
-2.025890231726112
 21
115.9543436985048
 31
0.0
  0
LINE
  5
1D5
330
1F
100
AcDbEntity
  8
縦断図
  6
Continuous
 62
     7
370
    13
100
AcDbLine
 10
-4.513431806342984
 20
115.9241955579929
 30
0.0
 11
-4.513431806342981
 21
115.7741955579929
 31
0.0
  0
LINE
  5
1D6
330
1F
100
AcDbEntity
  8
縦断図
  6
Continuous
 62
     7
370
    13
100
AcDbLine
 10
-4.713431806342983
 20
115.9097115274665
 30
0.0
 11
-4.713431806342983
 21
115.7597115274665
 31
0.0
  0
LINE
  5
1D7
330
1F
100
AcDbEntity
  8
縦断図
  6
Continuous
 62
     7
370
    13
100
AcDbLine
 10
-4.713431806342983
 20
115.7597115274665
 30
0.0
 11
-4.513431806342981
 21
115.7741955579929
 31
0.0
  0
LINE
  5
1D8
330
1F
100
AcDbEntity
  8
縦断図
  6
Continuous
 62
     7
370
    13
100
AcDbLine
 10
-6.988703840850899
 20
115.7449359794484
 30
0.0
 11
-4.700404211382681
 21
115.910654987882
 31
0.0
  0
LINE
  5
1D9
330
1F
100
AcDbEntity
  8
縦断図
  6
Continuous
 62
     7
370
    13
100
AcDbLine
 10
-4.513431806342984
 20
115.9241955579929
 30
0.0
 11
-2.225890231726115
 21
116.0898596679784
 31
0.0
  0
LINE
  5
1DA
330
1F
100
AcDbEntity
  8
縦断図
  6
Continuous
 62
     7
370
    13
100
AcDbLine
 10
-2.025890231726112
 20
116.1043436985048
 30
0.0
 11
0.2126797016298489
 21
116.2664612747556
 31
0.0
  0
LINE
  5
1DB
330
1F
100
AcDbEntity
  8
縦断図
  6
Continuous
 62
     7
370
    13
100
AcDbLine
 10
0.4126797016298518
 20
116.2809453052819
 30
0.0
 11
1.681296159149102
 21
116.3728187027668
 31
0.0
  0
LINE
  5
1DC
330
1F
100
AcDbEntity
  8
縦断図
  6
Continuous
 62
     7
370
    13
100
AcDbLine
 10
1.881296159149105
 20
116.3873027332932
 30
0.0
 11
2.631296159149102
 21
116.4416178477671
 31
0.0
  0
LINE
  5
1DD
330
1F
100
AcDbEntity
  8
縦断図
  6
Continuous
 62
     7
370
    13
100
AcDbLine
 10
0.9612961591491036
 20
114.5749359794484
 30
0.0
 11
0.9612961591491036
 21
114.6249359794484
 31
0.0
  0
LINE
  5
1DE
330
1F
100
AcDbEntity
  8
縦断図
  6
Continuous
 62
     7
370
    13
100
AcDbLine
 10
0.9612961591491036
 20
114.6249359794484
 30
0.0
 11
2.681296159149102
 21
114.6249359794484
 31
0.0
  0
LINE
  5
1DF
330
1F
100
AcDbEntity
  8
縦断図
  6
Continuous
 62
     7
370
    13
100
AcDbLine
 10
2.681296159149102
 20
114.6249359794484
 30
0.0
 11
2.681296159149102
 21
114.5749359794484
 31
0.0
  0
LINE
  5
1E0
330
1F
100
AcDbEntity
  8
縦断図
  6
Continuous
 62
     7
370
    13
100
AcDbLine
 10
0.9612961591491036
 20
113.8649359794484
 30
0.0
 11
1.152313345103693
 21
113.8649359794484
 31
0.0
  0
LINE
  5
1E1
330
1F
100
AcDbEntity
  8
縦断図
  6
Continuous
 62
     7
370
    13
100
AcDbLine
 10
-6.167703840850898
 20
113.045201267918
 30
0.0
 11
-6.167703840850898
 21
106.1440602183949
 31
0.0
  0
LINE
  5
1E2
330
1F
100
AcDbEntity
  8
縦断図
  6
Continuous
 62
     7
370
    13
100
AcDbLine
 10
0.274296159149106
 20
113.8649359794484
 30
0.0
 11
0.274296159149106
 21
112.9355690829365
 31
0.0
  0
POLYLINE
  5
1E3
330
1F
100
AcDbEntity
  8
縦断図
  6
Continuous
 62
     7
370
    13
100
AcDb3dPolyline
 66
     1
 10
0.0
 20
0.0
 30
0.0
 70
     8
  0
VERTEX
  5
1E4
330
1E3
100
AcDbEntity
  8
縦断図
  6
Continuous
 62
     7
100
AcDbVertex
100
AcDb3dPolylineVertex
 10
0.246040313044336
 20
107.1239450254644
 30
0.0
 70
    32
  0
VERTEX
  5
1E5
330
1E3
100
AcDbEntity
  8
縦断図
  6
Continuous
 62
     7
100
AcDbVertex
100
AcDb3dPolylineVertex
 10
0.2098965089946603
 20
105.6556417732421
 30
0.0
 70
    32
  0
VERTEX
  5
1E6
330
1E3
100
AcDbEntity
  8
縦断図
  6
Continuous
 62
     7
100
AcDbVertex
100
AcDb3dPolylineVertex
 10
0.338896393075931
 20
105.6555918509106
 30
0.0
 70
    32
  0
VERTEX
  5
1E7
330
1E3
100
AcDbEntity
  8
縦断図
  6
Continuous
 62
     7
100
AcDbVertex
100
AcDb3dPolylineVertex
 10
0.3027525890262588
 20
107.1226106564026
 30
0.0
 70
    32
  0
SEQEND
  5
1E8
330
1E3
100
AcDbEntity
  8
縦断図
  6
Continuous
 62
     7
370
    13
  0
LINE
  5
1E9
330
1F
100
AcDbEntity
  8
縦断図
  6
Continuous
 62
     7
370
    13
100
AcDbLine
 10
0.3027525890262588
 20
107.1226106564026
 30
0.0
 11
0.246040313044336
 21
107.1239450254644
 31
0.0
  0
CIRCLE
  5
1EA
330
1F
100
AcDbEntity
  8
縦断図
  6
Continuous
 62
     7
370
    13
100
AcDbCircle
 10
-4.174703840850897
 20
112.5931068364061
 30
0.0
 40
0.1251148267143307
  0
CIRCLE
  5
1EB
330
1F
100
AcDbEntity
  8
縦断図
  6
Continuous
 62
     7
370
    13
100
AcDbCircle
 10
-0.2047038408508932
 20
112.4082977627366
 30
0.0
 40
0.1129999999999995
  0
LINE
  5
1EC
330
1F
100
AcDbEntity
  8
縦断図
  6
Continuous
 62
     7
370
    13
100
AcDbLine
 10
4.078296159149104
 20
107.1806422816804
 30
0.0
 11
4.078296159149104
 21
106.6609096314514
 31
0.0
  0
LINE
  5
1ED
330
1F
100
AcDbEntity
  8
縦断図
  6
Continuous
 62
     7
370
    13
100
AcDbLine
 10
4.064810029858066
 20
106.6609096314514
 30
0.0
 11
4.147867175232225
 21
106.6609096314514
 31
0.0
  0
LINE
  5
1EE
330
1F
100
AcDbEntity
  8
縦断図
  6
Continuous
 62
     7
370
    13
100
AcDbLine
 10
-8.195200153161121
 20
113.8649359794484
 30
0.0
 11
-9.94506056854041
 21
113.8649359794484
 31
0.0
  0
POLYLINE
  5
1EF
330
1F
100
AcDbEntity
  8
縦断図
  6
Continuous
 62
     7
370
    13
100
AcDb3dPolyline
 66
     1
 10
0.0
 20
0.0
 30
0.0
 70
     8
  0
VERTEX
  5
1F0
330
1EF
100
AcDbEntity
  8
縦断図
  6
Continuous
 62
     7
100
AcDbVertex
100
AcDb3dPolylineVertex
 10
-8.53144502879423
 20
113.8649359794484
 30
0.0
 70
    32
  0
VERTEX
  5
1F1
330
1EF
100
AcDbEntity
  8
縦断図
  6
Continuous
 62
     7
100
AcDbVertex
100
AcDb3dPolylineVertex
 10
-8.444842488415787
 20
114.0149359794484
 30
0.0
 70
    32
  0
VERTEX
  5
1F2
330
1EF
100
AcDbEntity
  8
縦断図
  6
Continuous
 62
     7
100
AcDbVertex
100
AcDb3dPolylineVertex
 10
-8.618047569172674
 20
114.0149359794484
 30
0.0
 70
    32
  0
VERTEX
  5
1F3
330
1EF
100
AcDbEntity
  8
縦断図
  6
Continuous
 62
     7
100
AcDbVertex
100
AcDb3dPolylineVertex
 10
-8.53144502879423
 20
113.8649359794484
 30
0.0
 70
    32
  0
SEQEND
  5
1F4
330
1EF
100
AcDbEntity
  8
縦断図
  6
Continuous
 62
     7
370
    13
  0
LINE
  5
1F5
330
1F
100
AcDbEntity
  8
縦断図
  6
Continuous
 62
     7
370
    13
100
AcDbLine
 10
3.233502219353788
 20
114.5749359794484
 30
0.0
 11
4.791702932902869
 21
114.5749359794484
 31
0.0
  0
TEXT
  5
1F6
330
1F
100
AcDbEntity
  8
縦断図
  6
Continuous
 62
     7
370
    13
100
AcDbText
 10
3.248029932900756
 20
114.6567865698776
 30
0.0
 40
0.1915708812260526
  1
上段スノコ
  7
ＭＳ ゴシック
 11
3.248029932900756
 21
114.6217788299062
 31
0.0
100
AcDbText
 73
     1
  0
POLYLINE
  5
1F7
330
1F
100
AcDbEntity
  8
縦断図
  6
Continuous
 62
     7
370
    13
100
AcDb3dPolyline
 66
     1
 10
0.0
 20
0.0
 30
0.0
 70
     8
  0
VERTEX
  5
1F8
330
1F7
100
AcDbEntity
  8
縦断図
  6
Continuous
 62
     7
100
AcDbVertex
100
AcDb3dPolylineVertex
 10
4.666938352217294
 20
114.5749359794484
 30
0.0
 70
    32
  0
VERTEX
  5
1F9
330
1F7
100
AcDbEntity
  8
縦断図
  6
Continuous
 62
     7
100
AcDbVertex
100
AcDb3dPolylineVertex
 10
4.753540892595737
 20
114.7249359794484
 30
0.0
 70
    32
  0
VERTEX
  5
1FA
330
1F7
100
AcDbEntity
  8
縦断図
  6
Continuous
 62
     7
100
AcDbVertex
100
AcDb3dPolylineVertex
 10
4.58033581183885
 20
114.7249359794484
 30
0.0
 70
    32
  0
VERTEX
  5
1FB
330
1F7
100
AcDbEntity
  8
縦断図
  6
Continuous
 62
     7
100
AcDbVertex
100
AcDb3dPolylineVertex
 10
4.666938352217294
 20
114.5749359794484
 30
0.0
 70
    32
  0
SEQEND
  5
1FC
330
1F7
100
AcDbEntity
  8
縦断図
  6
Continuous
 62
     7
370
    13
  0
TEXT
  5
1FD
330
1F
100
AcDbEntity
  8
縦断図
  6
Continuous
 62
     7
370
    13
100
AcDbText
 10
4.794496700581163
 20
100.1289677806466
 30
0.0
 40
0.1915708812260526
  1
舞台
  7
ＭＳ ゴシック
 11
4.794496700581163
 21
100.0939600406751
 31
0.0
100
AcDbText
 73
     1
  0
POLYLINE
  5
1FE
330
1F
100
AcDbEntity
  8
縦断図
  6
Continuous
 62
     7
370
    13
100
AcDb3dPolyline
 66
     1
 10
0.0
 20
0.0
 30
0.0
 70
     8
  0
VERTEX
  5
1FF
330
1FE
100
AcDbEntity
  8
縦断図
  6
Continuous
 62
     7
100
AcDbVertex
100
AcDb3dPolylineVertex
 10
4.61350772579139
 20
100.0649359794484
 30
0.0
 70
    32
  0
VERTEX
  5
200
330
1FE
100
AcDbEntity
  8
縦断図
  6
Continuous
 62
     7
100
AcDbVertex
100
AcDb3dPolylineVertex
 10
4.700110266169833
 20
100.2149359794484
 30
0.0
 70
    32
  0
VERTEX
  5
201
330
1FE
100
AcDbEntity
  8
縦断図
  6
Continuous
 62
     7
100
AcDbVertex
100
AcDb3dPolylineVertex
 10
4.526905185412943
 20
100.2149359794484
 30
0.0
 70
    32
  0
VERTEX
  5
202
330
1FE
100
AcDbEntity
  8
縦断図
  6
Continuous
 62
     7
100
AcDbVertex
100
AcDb3dPolylineVertex
 10
4.61350772579139
 20
100.0649359794484
 30
0.0
 70
    32
  0
SEQEND
  5
203
330
1FE
100
AcDbEntity
  8
縦断図
  6
Continuous
 62
     7
370
    13
  0
TEXT
  5
204
330
1F
100
AcDbEntity
  8
縦断図
  6
Continuous
 62
     7
370
    13
100
AcDbText
 10
4.122938879455621
 20
107.2792034027629
 30
0.0
 40
0.0957854406130281
  1
プロサス
 50
90.0
  7
ＭＳ ゴシック
 72
     1
 11
4.075046159149107
 21
107.5283389741961
 31
0.0
100
AcDbText
 73
     2
  0
LINE
  5
205
330
1F
100
AcDbEntity
  8
縦断図
  6
Continuous
 62
     7
370
    13
100
AcDbLine
 10
2.407906332559932
 20
106.8065506617083
 30
0.0
 11
2.407906332559932
 21
107.0565506617083
 31
0.0
  0
LINE
  5
206
330
1F
100
AcDbEntity
  8
枠
  6
Continuous
 62
     7
370
    13
100
AcDbLine
 10
-20.0
 20
122.7
 30
0.0
 11
-20.0
 21
95.0
 31
0.0
  0
LINE
  5
207
330
1F
100
AcDbEntity
  8
枠
  6
Continuous
 62
     7
370
    13
100
AcDbLine
 10
-20.0
 20
95.0
 30
0.0
 11
20.0
 21
95.0
 31
0.0
  0
LINE
  5
208
330
1F
100
AcDbEntity
  8
枠
  6
Continuous
 62
     7
370
    13
100
AcDbLine
 10
20.0
 20
95.0
 30
0.0
 11
20.0
 21
122.7
 31
0.0
  0
LINE
  5
209
330
1F
100
AcDbEntity
  8
枠
  6
Continuous
 62
     7
370
    13
100
AcDbLine
 10
20.0
 20
122.7
 30
0.0
 11
-20.0
 21
122.7
 31
0.0
  0
TEXT
  5
20A
330
1F
100
AcDbEntity
  8
枠
  6
Continuous
 62
     7
370
    13
100
AcDbText
 10
-4.883057200089872
 20
121.4500007662835
 30
0.0
 40
0.5363984674329494
  1
富山県民会館ホール舞台縦断図
  7
ＭＳ ゴシック
 72
     1
 11
0.0
 21
121.7182
 31
0.0
100
AcDbText
 73
     2
  0
TEXT
  5
20B
330
1F
100
AcDbEntity
  8
枠
  6
Continuous
 62
     7
370
    13
100
AcDbText
 10
-2.242220142898423
 20
120.5214291187739
 30
0.0
 40
0.3831417624521087
  1
縮尺 S=1/100（A3）
  7
ＭＳ ゴシック
 72
     1
 11
0.0
 21
120.713
 31
0.0
100
AcDbText
 73
     2
  0
LINE
  5
20C
330
1F
100
AcDbEntity
  8
枠
  6
chain
 62
     7
370
    13
100
AcDbLine
 10
-7.202837189907273
 20
100.0649359794484
 30
0.0
 11
-13.69135044651009
 21
100.0649359794484
 31
0.0
  0
LINE
  5
20D
330
1F
100
AcDbEntity
  8
枠
  6
chain
 62
     7
370
    13
100
AcDbLine
 10
-7.368165831788479
 20
115.7449359794484
 30
0.0
 11
-13.08619098331557
 21
115.7449359794484
 31
0.0
  0
LINE
  5
20E
330
1F
100
AcDbEntity
  8
枠
  6
chain
 62
     7
370
    13
100
AcDbLine
 10
1.497434800858787
 20
116.4416178477671
 30
0.0
 11
-13.69135044651009
 21
116.4416178477671
 31
0.0
  0
LINE
  5
20F
330
1F
100
AcDbEntity
  8
枠
  6
chain
 62
     7
370
    13
100
AcDbLine
 10
0.6319095198838127
 20
114.5749359794484
 30
0.0
 11
-13.08619098331557
 21
114.5749359794484
 31
0.0
  0
LINE
  5
210
330
1F
100
AcDbEntity
  8
枠
  6
chain
 62
     7
370
    13
100
AcDbLine
 10
-7.538703840850896
 20
113.8649359794484
 30
0.0
 11
-13.08619098331557
 21
113.8649359794484
 31
0.0
  0
LINE
  5
211
330
1F
100
AcDbEntity
  8
枠
  6
chain
 62
     7
370
    13
100
AcDbLine
 10
2.351547490991031
 20
106.8065506617083
 30
0.0
 11
-13.08619098331557
 21
106.8065506617083
 31
0.0
  0
DIMENSION
  5
218
330
1F
100
AcDbEntity
  8
枠
  6
Continuous
 62
     7
370
    13
100
AcDbDimension
280
     0
  2
*D2
 10
-12.50415017727466
 20
106.8065506617083
 30
0.0
 11
-12.67915017727466
 21
103.4357433205784
 31
0.0
 70
   160
  1
6742
 71
     5
 42
6.741614682259865
 73
     0
 74
     0
 75
     0
 53
90.0
  3
Standard
100
AcDbAlignedDimension
 13
-12.50405017727466
 23
100.0649359794484
 33
0.0
 14
-12.50405017727466
 24
106.8065506617083
 34
0.0
 50
90.0
100
AcDbRotatedDimension
1001
ACAD
1000
DSTYLE
1002
{
1070
    70
1070
     0
1070
    69
1070
     0
1070
   271
1070
     2
1070
   178
1070
     7
1070
   177
1070
     7
1070
   176
1070
     7
1070
   289
1070
     3
1070
    77
1070
     1
1070
   174
1070
     1
1070
   172
1070
     1
1070
    73
1070
     0
1070
    74
1070
     0
1070
   173
1070
     1
1070
   279
1070
     2
1070
    76
1070
     1
1070
    75
1070
     1
1070
    44
1040
0.0
1070
    42
1040
0.0
1070
   147
1040
0.0
1070
   140
1040
0.1915708812260526
1070
    41
1040
0.1000000000000014
1070
   340
1005
73
1070
   344
1005
212
1070
   343
1005
212
1002
}
  0
DIMENSION
  5
224
330
1F
100
AcDbEntity
  8
枠
  6
Continuous
 62
     7
370
    13
100
AcDbDimension
280
     0
  2
*D3
 10
-12.50415017727466
 20
113.8649359794484
 30
0.0
 11
-12.67915017727466
 21
110.3357433205784
 31
0.0
 70
   160
  1
7058
 71
     5
 42
7.058385317740132
 73
     0
 74
     0
 75
     0
 53
90.0
  3
Standard
100
AcDbAlignedDimension
 13
-12.50405017727466
 23
106.8065506617083
 33
0.0
 14
-12.50405017727466
 24
113.8649359794484
 34
0.0
 50
90.0
100
AcDbRotatedDimension
1001
ACAD
1000
DSTYLE
1002
{
1070
    70
1070
     0
1070
    69
1070
     0
1070
   271
1070
     2
1070
   178
1070
     7
1070
   177
1070
     7
1070
   176
1070
     7
1070
   289
1070
     3
1070
    77
1070
     1
1070
   174
1070
     1
1070
   172
1070
     1
1070
    73
1070
     0
1070
    74
1070
     0
1070
   173
1070
     1
1070
   279
1070
     2
1070
    76
1070
     1
1070
    75
1070
     1
1070
    44
1040
0.0
1070
    42
1040
0.0
1070
   147
1040
0.0
1070
   140
1040
0.1915708812260526
1070
    41
1040
0.1000000000000014
1070
   340
1005
73
1070
   344
1005
212
1070
   343
1005
212
1002
}
  0
DIMENSION
  5
22F
330
1F
100
AcDbEntity
  8
枠
  6
Continuous
 62
     7
370
    13
100
AcDbDimension
280
     0
  2
*D4
 10
-12.50415017727466
 20
114.5749359794484
 30
0.0
 11
-12.67915017727466
 21
114.2199359794484
 31
0.0
 70
   160
  1
710
 71
     5
 42
0.7099999999999795
 73
     0
 74
     0
 75
     0
 53
90.0
  3
Standard
100
AcDbAlignedDimension
 13
-12.50405017727466
 23
113.8649359794484
 33
0.0
 14
-12.50405017727466
 24
114.5749359794484
 34
0.0
 50
90.0
100
AcDbRotatedDimension
1001
ACAD
1000
DSTYLE
1002
{
1070
    70
1070
     0
1070
    69
1070
     0
1070
   271
1070
     2
1070
   178
1070
     7
1070
   177
1070
     7
1070
   176
1070
     7
1070
   289
1070
     3
1070
    77
1070
     1
1070
   174
1070
     1
1070
   172
1070
     1
1070
    73
1070
     0
1070
    74
1070
     0
1070
   173
1070
     1
1070
   279
1070
     2
1070
    76
1070
     1
1070
    75
1070
     1
1070
    44
1040
0.0
1070
    42
1040
0.0
1070
   147
1040
0.0
1070
   140
1040
0.1915708812260526
1070
    41
1040
0.1000000000000014
1070
   340
1005
73
1070
   344
1005
212
1070
   343
1005
212
1002
}
  0
DIMENSION
  5
23A
330
1F
100
AcDbEntity
  8
枠
  6
Continuous
 62
     7
370
    13
100
AcDbDimension
280
     0
  2
*D5
 10
-12.50415017727466
 20
115.7449359794484
 30
0.0
 11
-12.67915017727466
 21
115.1599359794484
 31
0.0
 70
   160
  1
1170
 71
     5
 42
1.170000000000016
 73
     0
 74
     0
 75
     0
 53
90.0
  3
Standard
100
AcDbAlignedDimension
 13
-12.50405017727466
 23
114.5749359794484
 33
0.0
 14
-12.50405017727466
 24
115.7449359794484
 34
0.0
 50
90.0
100
AcDbRotatedDimension
1001
ACAD
1000
DSTYLE
1002
{
1070
    70
1070
     0
1070
    69
1070
     0
1070
   271
1070
     2
1070
   178
1070
     7
1070
   177
1070
     7
1070
   176
1070
     7
1070
   289
1070
     3
1070
    77
1070
     1
1070
   174
1070
     1
1070
   172
1070
     1
1070
    73
1070
     0
1070
    74
1070
     0
1070
   173
1070
     1
1070
   279
1070
     2
1070
    76
1070
     1
1070
    75
1070
     1
1070
    44
1040
0.0
1070
    42
1040
0.0
1070
   147
1040
0.0
1070
   140
1040
0.1915708812260526
1070
    41
1040
0.1000000000000014
1070
   340
1005
73
1070
   344
1005
212
1070
   343
1005
212
1002
}
  0
DIMENSION
  5
245
330
1F
100
AcDbEntity
  8
枠
  6
Continuous
 62
     7
370
    13
100
AcDbDimension
280
     0
  2
*D6
 10
-12.50415017727466
 20
116.4416178477671
 30
0.0
 11
-12.67915017727466
 21
116.0932769136077
 31
0.0
 70
   160
  1
697
 71
     5
 42
0.6966818683186347
 73
     0
 74
     0
 75
     0
 53
90.0
  3
Standard
100
AcDbAlignedDimension
 13
-12.50405017727466
 23
115.7449359794484
 33
0.0
 14
-12.50405017727466
 24
116.4416178477671
 34
0.0
 50
90.0
100
AcDbRotatedDimension
1001
ACAD
1000
DSTYLE
1002
{
1070
    70
1070
     0
1070
    69
1070
     0
1070
   271
1070
     2
1070
   178
1070
     7
1070
   177
1070
     7
1070
   176
1070
     7
1070
   289
1070
     3
1070
    77
1070
     1
1070
   174
1070
     1
1070
   172
1070
     1
1070
    73
1070
     0
1070
    74
1070
     0
1070
   173
1070
     1
1070
   279
1070
     2
1070
    76
1070
     1
1070
    75
1070
     1
1070
    44
1040
0.0
1070
    42
1040
0.0
1070
   147
1040
0.0
1070
   140
1040
0.1915708812260526
1070
    41
1040
0.1000000000000014
1070
   340
1005
73
1070
   344
1005
212
1070
   343
1005
212
1002
}
  0
LINE
  5
250
330
1F
100
AcDbEntity
  8
枠
  6
chain
 62
     7
370
    13
100
AcDbLine
 10
5.893887063632747
 20
100.0649359794484
 30
0.0
 11
12.74588682697436
 21
100.0649359794484
 31
0.0
  0
LINE
  5
251
330
1F
100
AcDbEntity
  8
枠
  6
chain
 62
     7
370
    13
100
AcDbLine
 10
5.238674662733452
 20
106.8065506617083
 30
0.0
 11
12.74588682697436
 21
106.8065506617083
 31
0.0
  0
LINE
  5
252
330
1F
100
AcDbEntity
  8
枠
  6
chain
 62
     7
370
    13
100
AcDbLine
 10
5.757169515413608
 20
114.5749359794484
 30
0.0
 11
12.74588682697436
 21
114.5749359794484
 31
0.0
  0
DIMENSION
  5
253
330
1F
100
AcDbEntity
  8
枠
  6
Continuous
 62
     7
370
    13
100
AcDbDimension
280
     0
  2
*D7
 10
12.21846563153784
 20
106.8065506617083
 30
0.0
 11
12.04346563153784
 21
103.4357433205784
 31
0.0
 70
   160
  1
6742
 71
     5
 42
6.741614682259865
 73
     0
 74
     0
 75
     0
 53
90.0
  3
Standard
100
AcDbAlignedDimension
 13
12.21856563153784
 23
100.0649359794484
 33
0.0
 14
12.21856563153784
 24
106.8065506617083
 34
0.0
 50
90.0
100
AcDbRotatedDimension
1001
ACAD
1000
DSTYLE
1002
{
1070
    70
1070
     0
1070
    69
1070
     0
1070
   271
1070
     2
1070
   178
1070
     7
1070
   177
1070
     7
1070
   176
1070
     7
1070
   289
1070
     3
1070
    77
1070
     1
1070
   174
1070
     1
1070
   172
1070
     1
1070
    73
1070
     0
1070
    74
1070
     0
1070
   173
1070
     1
1070
   279
1070
     2
1070
    76
1070
     1
1070
    75
1070
     1
1070
    44
1040
0.0
1070
    42
1040
0.0
1070
   147
1040
0.0
1070
   140
1040
0.1915708812260526
1070
    41
1040
0.1000000000000014
1070
   340
1005
73
1070
   344
1005
212
1070
   343
1005
212
1002
}
  0
DIMENSION
  5
25E
330
1F
100
AcDbEntity
  8
枠
  6
Continuous
 62
     7
370
    13
100
AcDbDimension
280
     0
  2
*D8
 10
12.21846563153784
 20
114.5749359794484
 30
0.0
 11
12.04346563153784
 21
110.6907433205784
 31
0.0
 70
   160
  1
7768
 71
     5
 42
7.768385317740112
 73
     0
 74
     0
 75
     0
 53
90.0
  3
Standard
100
AcDbAlignedDimension
 13
12.21856563153784
 23
106.8065506617083
 33
0.0
 14
12.21856563153784
 24
114.5749359794484
 34
0.0
 50
90.0
100
AcDbRotatedDimension
1001
ACAD
1000
DSTYLE
1002
{
1070
    70
1070
     0
1070
    69
1070
     0
1070
   271
1070
     2
1070
   178
1070
     7
1070
   177
1070
     7
1070
   176
1070
     7
1070
   289
1070
     3
1070
    77
1070
     1
1070
   174
1070
     1
1070
   172
1070
     1
1070
    73
1070
     0
1070
    74
1070
     0
1070
   173
1070
     1
1070
   279
1070
     2
1070
    76
1070
     1
1070
    75
1070
     1
1070
    44
1040
0.0
1070
    42
1040
0.0
1070
   147
1040
0.0
1070
   140
1040
0.1915708812260526
1070
    41
1040
0.1000000000000014
1070
   340
1005
73
1070
   344
1005
212
1070
   343
1005
212
1002
}
  0
DIMENSION
  5
269
330
1F
100
AcDbEntity
  8
枠
  6
Continuous
 62
     7
370
    13
100
AcDbDimension
280
     0
  2
*D9
 10
-13.52281812291919
 20
100.0649359794484
 30
0.0
 11
-13.69781812291919
 21
108.2532769136077
 31
0.0
 70
   160
  1
16377
 71
     5
 42
16.37668186831863
 73
     0
 74
     0
 75
     0
 53
90.0
  3
Standard
100
AcDbAlignedDimension
 13
-13.52291812291919
 23
116.4416178477671
 33
0.0
 14
-13.52291812291919
 24
100.0649359794484
 34
0.0
 50
270.0
100
AcDbRotatedDimension
1001
ACAD
1000
DSTYLE
1002
{
1070
    70
1070
     0
1070
    69
1070
     0
1070
   271
1070
     2
1070
   178
1070
     7
1070
   177
1070
     7
1070
   176
1070
     7
1070
   289
1070
     3
1070
    77
1070
     1
1070
   174
1070
     1
1070
   172
1070
     1
1070
    73
1070
     0
1070
    74
1070
     0
1070
   173
1070
     1
1070
   279
1070
     2
1070
    76
1070
     1
1070
    75
1070
     1
1070
    44
1040
0.0
1070
    42
1040
0.0
1070
   147
1040
0.0
1070
   140
1040
0.1915708812260526
1070
    41
1040
0.1000000000000014
1070
   340
1005
73
1070
   344
1005
212
1070
   343
1005
212
1002
}
  0
LINE
  5
274
330
1F
100
AcDbEntity
  8
枠
  6
chain
 62
     7
370
    13
100
AcDbLine
 10
-7.538703840850896
 20
114.8595378502459
 30
0.0
 11
-7.538703840850896
 21
118.1109505693192
 31
0.0
  0
LINE
  5
275
330
1F
100
AcDbEntity
  8
枠
  6
chain
 62
     7
370
    13
100
AcDbLine
 10
2.976296159149104
 20
115.5405460149601
 30
0.0
 11
2.976296159149104
 21
118.1109505693192
 31
0.0
  0
DIMENSION
  5
276
330
1F
100
AcDbEntity
  8
枠
  6
Continuous
 62
     7
370
    13
100
AcDbDimension
280
     0
  2
*D10
 10
2.976296159149104
 20
117.8385186414738
 30
0.0
 11
-2.281203840850896
 21
118.0135186414738
 31
0.0
 70
   160
  1
10515
 71
     5
 42
10.515
 73
     0
 74
     0
 75
     0
  3
Standard
100
AcDbAlignedDimension
 13
-7.538703840850896
 23
117.8384186414738
 33
0.0
 14
2.976296159149104
 24
117.8384186414738
 34
0.0
100
AcDbRotatedDimension
1001
ACAD
1000
DSTYLE
1002
{
1070
    70
1070
     0
1070
    69
1070
     0
1070
   271
1070
     2
1070
   178
1070
     7
1070
   177
1070
     7
1070
   176
1070
     7
1070
   289
1070
     3
1070
    77
1070
     1
1070
   174
1070
     1
1070
   172
1070
     1
1070
    73
1070
     1
1070
    74
1070
     1
1070
   173
1070
     1
1070
   279
1070
     2
1070
    76
1070
     1
1070
    75
1070
     1
1070
    44
1040
0.0
1070
    42
1040
0.0
1070
   147
1040
0.0
1070
   140
1040
0.1915708812260526
1070
    41
1040
0.1000000000000014
1070
   340
1005
73
1070
   344
1005
212
1070
   343
1005
212
1002
}
  0
TEXT
  5
281
330
1F
100
AcDbEntity
  8
枠
  6
Continuous
 62
     7
370
    13
100
AcDbText
 10
-7.032581452282769
 20
114.0998094544883
 30
0.0
 40
0.137931034482758
  1
1371
  7
ＭＳ ゴシック
 72
     1
 11
-6.853203840850897
 21
114.0746038817089
 31
0.0
100
AcDbText
 73
     1
  0
TEXT
  5
282
330
1F
100
AcDbEntity
  8
枠
  6
Continuous
 62
     7
370
    13
100
AcDbText
 10
-6.174237049424802
 20
114.4141426905937
 30
0.0
 40
0.137931034482758
  1
256
  7
ＭＳ ゴシック
 72
     1
 11
-6.039703840850898
 21
114.3889371178142
 31
0.0
100
AcDbText
 73
     1
  0
TEXT
  5
283
330
1F
100
AcDbEntity
  8
枠
  6
Continuous
 62
     7
370
    13
100
AcDbText
 10
-5.944237049424801
 20
114.2572025374085
 30
0.0
 40
0.137931034482758
  1
204
  7
ＭＳ ゴシック
 72
     1
 11
-5.809703840850897
 21
114.231996964629
 31
0.0
100
AcDbText
 73
     1
  0
TEXT
  5
284
330
1F
100
AcDbEntity
  8
枠
  6
Continuous
 62
     7
370
    13
100
AcDbText
 10
-5.7457370494248
 20
114.4243336096317
 30
0.0
 40
0.137931034482758
  1
193
  7
ＭＳ ゴシック
 72
     1
 11
-5.611203840850896
 21
114.3991280368522
 31
0.0
100
AcDbText
 73
     1
  0
TEXT
  5
285
330
1F
100
AcDbEntity
  8
枠
  6
Continuous
 62
     7
370
    13
100
AcDbText
 10
-5.548737049424799
 20
114.2547114238659
 30
0.0
 40
0.137931034482758
  1
201
  7
ＭＳ ゴシック
 72
     1
 11
-5.414203840850895
 21
114.2295058510864
 31
0.0
100
AcDbText
 73
     1
  0
TEXT
  5
286
330
1F
100
AcDbEntity
  8
枠
  6
Continuous
 62
     7
370
    13
100
AcDbText
 10
-5.2802370494248
 20
114.4191249176789
 30
0.0
 40
0.137931034482758
  1
336
  7
ＭＳ ゴシック
 72
     1
 11
-5.145703840850896
 21
114.3939193448995
 31
0.0
100
AcDbText
 73
     1
  0
TEXT
  5
287
330
1F
100
AcDbEntity
  8
枠
  6
Continuous
 62
     7
370
    13
100
AcDbText
 10
-4.9807370494248
 20
114.2812078133647
 30
0.0
 40
0.137931034482758
  1
263
  7
ＭＳ ゴシック
 72
     1
 11
-4.846203840850896
 21
114.2560022405852
 31
0.0
100
AcDbText
 73
     1
  0
TEXT
  5
288
330
1F
100
AcDbEntity
  8
枠
  6
Continuous
 62
     7
370
    13
100
AcDbText
 10
-4.379581452282769
 20
114.1772604391771
 30
0.0
 40
0.137931034482758
  1
1029
  7
ＭＳ ゴシック
 72
     1
 11
-4.200203840850897
 21
114.1520548663976
 31
0.0
100
AcDbText
 73
     1
  0
TEXT
  5
289
330
1F
100
AcDbEntity
  8
枠
  6
Continuous
 62
     7
370
    13
100
AcDbText
 10
-3.671737049424801
 20
114.3342005923623
 30
0.0
 40
0.137931034482758
  1
297
  7
ＭＳ ゴシック
 72
     1
 11
-3.537203840850896
 21
114.3089950195828
 31
0.0
100
AcDbText
 73
     1
  0
TEXT
  5
28A
330
1F
100
AcDbEntity
  8
枠
  6
Continuous
 62
     7
370
    13
100
AcDbText
 10
-3.305237049424798
 20
114.2119095639063
 30
0.0
 40
0.137931034482758
  1
436
  7
ＭＳ ゴシック
 72
     1
 11
-3.170703840850894
 21
114.1867039911268
 31
0.0
100
AcDbText
 73
     1
  0
TEXT
  5
28B
330
1F
100
AcDbEntity
  8
枠
  6
Continuous
 62
     7
370
    13
100
AcDbText
 10
-2.974737049424798
 20
114.3892315551674
 30
0.0
 40
0.137931034482758
  1
225
  7
ＭＳ ゴシック
 72
     1
 11
-2.840203840850894
 21
114.364025982388
 31
0.0
100
AcDbText
 73
     1
  0
TEXT
  5
28C
330
1F
100
AcDbEntity
  8
枠
  6
Continuous
 62
     7
370
    13
100
AcDbText
 10
-2.610737049424797
 20
114.2322914019823
 30
0.0
 40
0.137931034482758
  1
503
  7
ＭＳ ゴシック
 72
     1
 11
-2.476203840850893
 21
114.2070858292028
 31
0.0
100
AcDbText
 73
     1
  0
TEXT
  5
28D
330
1F
100
AcDbEntity
  8
枠
  6
Continuous
 62
     7
370
    13
100
AcDbText
 10
-2.130237049424798
 20
114.2567496076735
 30
0.0
 40
0.137931034482758
  1
458
  7
ＭＳ ゴシック
 72
     1
 11
-1.995703840850894
 21
114.231544034894
 31
0.0
100
AcDbText
 73
     1
  0
TEXT
  5
28E
330
1F
100
AcDbEntity
  8
枠
  6
Continuous
 62
     7
370
    13
100
AcDbText
 10
-1.799237049424798
 20
114.3994224742055
 30
0.0
 40
0.137931034482758
  1
204
  7
ＭＳ ゴシック
 72
     1
 11
-1.664703840850894
 21
114.374216901426
 31
0.0
100
AcDbText
 73
     1
  0
TEXT
  5
28F
330
1F
100
AcDbEntity
  8
枠
  6
Continuous
 62
     7
370
    13
100
AcDbText
 10
-1.523737049424797
 20
114.2180241153291
 30
0.0
 40
0.137931034482758
  1
347
  7
ＭＳ ゴシック
 72
     1
 11
-1.389203840850893
 21
114.1928185425496
 31
0.0
100
AcDbText
 73
     1
  0
TEXT
  5
290
330
1F
100
AcDbEntity
  8
枠
  6
Continuous
 62
     7
370
    13
100
AcDbText
 10
-1.142237049424798
 20
114.3117805704787
 30
0.0
 40
0.137931034482758
  1
416
  7
ＭＳ ゴシック
 72
     1
 11
-1.007703840850894
 21
114.2865749976992
 31
0.0
100
AcDbText
 73
     1
  0
TEXT
  5
291
330
1F
100
AcDbEntity
  8
枠
  6
Continuous
 62
     7
370
    13
100
AcDbText
 10
-0.4420814522827654
 20
114.2069672262522
 30
0.0
 40
0.137931034482758
  1
1074
  7
ＭＳ ゴシック
 72
     1
 11
-0.262703840850893
 21
114.1817616534727
 31
0.0
100
AcDbText
 73
     1
  0
TEXT
  5
292
330
1F
100
AcDbEntity
  8
枠
  6
Continuous
 62
     7
370
    13
100
AcDbText
 10
0.2392629505752043
 20
114.421842496089
 30
0.0
 40
0.137931034482758
  1
199
  7
ＭＳ ゴシック
 72
     1
 11
0.3737961591491086
 21
114.3966369233096
 31
0.0
100
AcDbText
 73
     1
  0
TEXT
  5
293
330
1F
100
AcDbEntity
  8
枠
  6
Continuous
 62
     7
370
    13
100
AcDbText
 10
0.4472629505752027
 20
114.2445205048279
 30
0.0
 40
0.137931034482758
  1
217
  7
ＭＳ ゴシック
 72
     1
 11
0.581796159149107
 21
114.2193149320484
 31
0.0
100
AcDbText
 73
     1
  0
TEXT
  5
294
330
1F
100
AcDbEntity
  8
枠
  6
Continuous
 62
     7
370
    13
100
AcDbText
 10
0.7577629505751967
 20
114.3871933713598
 30
0.0
 40
0.137931034482758
  1
404
  7
ＭＳ ゴシック
 72
     1
 11
0.892296159149101
 21
114.3619877985804
 31
0.0
100
AcDbText
 73
     1
  0
TEXT
  5
295
330
1F
100
AcDbEntity
  8
枠
  6
Continuous
 62
     7
370
    13
100
AcDbText
 10
1.081762950575198
 20
115.0327235956983
 30
0.0
 40
0.137931034482758
  1
244
  7
ＭＳ ゴシック
 72
     1
 11
1.216296159149103
 21
115.0075180229189
 31
0.0
100
AcDbText
 73
     1
  0
TEXT
  5
296
330
1F
100
AcDbEntity
  8
枠
  6
Continuous
 62
     7
370
    13
100
AcDbText
 10
1.298262950575198
 20
114.8701784370423
 30
0.0
 40
0.137931034482758
  1
189
  7
ＭＳ ゴシック
 72
     1
 11
1.432796159149103
 21
114.8449728642628
 31
0.0
100
AcDbText
 73
     1
  0
TEXT
  5
297
330
1F
100
AcDbEntity
  8
枠
  6
Continuous
 62
     7
370
    13
100
AcDbText
 10
1.5367629505752
 20
115.0657503119626
 30
0.0
 40
0.137931034482758
  1
288
  7
ＭＳ ゴシック
 72
     1
 11
1.671296159149104
 21
115.0405447391832
 31
0.0
100
AcDbText
 73
     1
  0
TEXT
  5
298
330
1F
100
AcDbEntity
  8
枠
  6
Continuous
 62
     7
370
    13
100
AcDbText
 10
1.814762950575199
 20
114.9027893779638
 30
0.0
 40
0.137931034482758
  1
268
  7
ＭＳ ゴシック
 72
     1
 11
1.949296159149103
 21
114.8775838051844
 31
0.0
100
AcDbText
 73
     1
  0
TEXT
  5
299
330
1F
100
AcDbEntity
  8
枠
  6
Continuous
 62
     7
370
    13
100
AcDbText
 10
2.050262950575197
 20
115.0698266795778
 30
0.0
 40
0.137931034482758
  1
203
  7
ＭＳ ゴシック
 72
     1
 11
2.184796159149101
 21
115.0446211067984
 31
0.0
100
AcDbText
 73
     1
  0
TEXT
  5
29A
330
1F
100
AcDbEntity
  8
枠
  6
Continuous
 62
     7
370
    13
100
AcDbText
 10
2.496762950575198
 20
114.7173146514723
 30
0.0
 40
0.137931034482758
  1
690
  7
ＭＳ ゴシック
 72
     1
 11
2.631296159149102
 21
114.6921090786928
 31
0.0
100
AcDbText
 73
     1
  0
LINE
  5
29B
330
1F
100
AcDbEntity
  8
枠
  6
Continuous
 62
     7
370
    13
100
AcDbLine
 10
2.286296159149103
 20
114.9585553479221
 30
0.0
 11
2.286296159149103
 21
117.0744408071368
 31
0.0
  0
LINE
  5
29C
330
1F
100
AcDbEntity
  8
枠
  6
Continuous
 62
     7
370
    13
100
AcDbLine
 10
2.083296159149103
 20
114.9585553479221
 30
0.0
 11
2.083296159149103
 21
117.4566280186498
 31
0.0
  0
LINE
  5
29D
330
1F
100
AcDbEntity
  8
枠
  6
Continuous
 62
     7
370
    13
100
AcDbLine
 10
1.815296159149103
 20
114.9585553479221
 30
0.0
 11
1.815296159149103
 21
117.0744408071368
 31
0.0
  0
LINE
  5
29E
330
1F
100
AcDbEntity
  8
枠
  6
Continuous
 62
     7
370
    13
100
AcDbLine
 10
1.527296159149103
 20
114.9585553479221
 30
0.0
 11
1.527296159149103
 21
117.4583985575985
 31
0.0
  0
LINE
  5
29F
330
1F
100
AcDbEntity
  8
枠
  6
Continuous
 62
     7
370
    13
100
AcDbLine
 10
1.338296159149102
 20
114.9585553479221
 30
0.0
 11
1.338296159149102
 21
117.0744408071368
 31
0.0
  0
LINE
  5
2A0
330
1F
100
AcDbEntity
  8
枠
  6
Continuous
 62
     7
370
    13
100
AcDbLine
 10
1.094296159149103
 20
114.9585553479221
 30
0.0
 11
1.094296159149103
 21
117.4578806604814
 31
0.0
  0
LINE
  5
2A1
330
1F
100
AcDbEntity
  8
枠
  6
Continuous
 62
     7
370
    13
100
AcDbLine
 10
0.6902961591491028
 20
114.9585553479221
 30
0.0
 11
0.6902961591491028
 21
117.0744408071368
 31
0.0
  0
LINE
  5
2A2
330
1F
100
AcDbEntity
  8
枠
  6
Continuous
 62
     7
370
    13
100
AcDbLine
 10
0.4732961591491041
 20
114.9585553479221
 30
0.0
 11
0.4732961591491041
 21
117.4571838879974
 31
0.0
  0
LINE
  5
2A3
330
1F
100
AcDbEntity
  8
枠
  6
Continuous
 62
     7
370
    13
100
AcDbLine
 10
0.274296159149106
 20
114.9585553479221
 30
0.0
 11
0.274296159149106
 21
117.0744408071368
 31
0.0
  0
LINE
  5
2A4
330
1F
100
AcDbEntity
  8
枠
  6
Continuous
 62
     7
370
    13
100
AcDbLine
 10
-0.7997038408508921
 20
114.9585553479221
 30
0.0
 11
-0.7997038408508921
 21
117.4557841000348
 31
0.0
  0
LINE
  5
2A5
330
1F
100
AcDbEntity
  8
枠
  6
Continuous
 62
     7
370
    13
100
AcDbLine
 10
-1.215703840850892
 20
114.9585553479221
 30
0.0
 11
-1.215703840850892
 21
117.4575283384385
 31
0.0
  0
LINE
  5
2A6
330
1F
100
AcDbEntity
  8
枠
  6
Continuous
 62
     7
370
    13
100
AcDbLine
 10
-1.56270384085089
 20
114.9585553479221
 30
0.0
 11
-1.56270384085089
 21
117.4567531213702
 31
0.0
  0
LINE
  5
2A7
330
1F
100
AcDbEntity
  8
枠
  6
Continuous
 62
     7
370
    13
100
AcDbLine
 10
-1.766703840850891
 20
114.9585553479221
 30
0.0
 11
-1.766703840850891
 21
117.0744408071368
 31
0.0
  0
LINE
  5
2A8
330
1F
100
AcDbEntity
  8
枠
  6
Continuous
 62
     7
370
    13
100
AcDbLine
 10
-2.224703840850893
 20
114.9585553479221
 30
0.0
 11
-2.224703840850893
 21
117.4575006521146
 31
0.0
  0
LINE
  5
2A9
330
1F
100
AcDbEntity
  8
枠
  6
Continuous
 62
     7
370
    13
100
AcDbLine
 10
-2.727703840850893
 20
114.9585553479221
 30
0.0
 11
-2.727703840850893
 21
117.4570169557506
 31
0.0
  0
LINE
  5
2AA
330
1F
100
AcDbEntity
  8
枠
  6
Continuous
 62
     7
370
    13
100
AcDbLine
 10
-2.952703840850891
 20
114.9585553479221
 30
0.0
 11
-2.952703840850891
 21
117.0744408071368
 31
0.0
  0
LINE
  5
2AB
330
1F
100
AcDbEntity
  8
枠
  6
Continuous
 62
     7
370
    13
100
AcDbLine
 10
-3.388703840850891
 20
114.9585553479221
 30
0.0
 11
-3.388703840850891
 21
117.4583638139764
 31
0.0
  0
LINE
  5
2AC
330
1F
100
AcDbEntity
  8
枠
  6
Continuous
 62
     7
370
    13
100
AcDbLine
 10
-3.685703840850898
 20
114.9585553479221
 30
0.0
 11
-3.685703840850898
 21
117.0744408071368
 31
0.0
  0
LINE
  5
2AD
330
1F
100
AcDbEntity
  8
枠
  6
Continuous
 62
     7
370
    13
100
AcDbLine
 10
-4.714703840850895
 20
114.8668510964685
 30
0.0
 11
-4.714703840850895
 21
117.4599907926554
 31
0.0
  0
LINE
  5
2AE
330
1F
100
AcDbEntity
  8
枠
  6
Continuous
 62
     7
370
    13
100
AcDbLine
 10
-4.977703840850895
 20
114.9585553479221
 30
0.0
 11
-4.977703840850895
 21
117.0744408071368
 31
0.0
  0
LINE
  5
2AF
330
1F
100
AcDbEntity
  8
枠
  6
Continuous
 62
     7
370
    13
100
AcDbLine
 10
-5.313703840850897
 20
114.9585553479221
 30
0.0
 11
-5.313703840850897
 21
117.4586716207535
 31
0.0
  0
LINE
  5
2B0
330
1F
100
AcDbEntity
  8
枠
  6
Continuous
 62
     7
370
    13
100
AcDbLine
 10
-5.514703840850895
 20
114.9585553479221
 30
0.0
 11
-5.514703840850895
 21
117.0744408071368
 31
0.0
  0
LINE
  5
2B1
330
1F
100
AcDbEntity
  8
枠
  6
Continuous
 62
     7
370
    13
100
AcDbLine
 10
-5.707703840850897
 20
114.9585553479221
 30
0.0
 11
-5.707703840850897
 21
117.4606943510031
 31
0.0
  0
LINE
  5
2B2
330
1F
100
AcDbEntity
  8
枠
  6
Continuous
 62
     7
370
    13
100
AcDbLine
 10
-5.911703840850898
 20
114.9585553479221
 30
0.0
 11
-5.911703840850898
 21
117.0744408071368
 31
0.0
  0
LINE
  5
2B3
330
1F
100
AcDbEntity
  8
枠
  6
Continuous
 62
     7
370
    13
100
AcDbLine
 10
-6.167703840850898
 20
114.9585553479221
 30
0.0
 11
-6.167703840850898
 21
117.4578801176123
 31
0.0
  0
TEXT
  5
2B4
330
1F
100
AcDbEntity
  8
枠
  6
Continuous
 62
     7
370
    13
100
AcDbText
 10
2.021012266290815
 20
117.5070508256828
 30
0.0
 40
0.1915708812260526
  1
2
  7
ＭＳ ゴシック
 72
     1
 11
2.083296159149103
 21
117.6028362662959
 31
0.0
100
AcDbText
 73
     2
  0
CIRCLE
  5
2B5
330
1F
100
AcDbEntity
  8
枠
  6
Continuous
 62
     7
370
    13
100
AcDbCircle
 10
2.083296159149103
 20
117.5963362662959
 30
0.0
 40
0.1397542485937358
  0
TEXT
  5
2B6
330
1F
100
AcDbEntity
  8
枠
  6
Continuous
 62
     7
370
    13
100
AcDbText
 10
1.465012266290814
 20
117.5088673655792
 30
0.0
 40
0.1915708812260526
  1
4
  7
ＭＳ ゴシック
 72
     1
 11
1.527296159149103
 21
117.6046528061922
 31
0.0
100
AcDbText
 73
     2
  0
CIRCLE
  5
2B7
330
1F
100
AcDbEntity
  8
枠
  6
Continuous
 62
     7
370
    13
100
AcDbCircle
 10
1.527296159149103
 20
117.5981528061922
 30
0.0
 40
0.1397542485937358
  0
TEXT
  5
2B8
330
1F
100
AcDbEntity
  8
枠
  6
Continuous
 62
     7
370
    13
100
AcDbText
 10
1.032012266290814
 20
117.5083494684621
 30
0.0
 40
0.1915708812260526
  1
6
  7
ＭＳ ゴシック
 72
     1
 11
1.094296159149103
 21
117.6041349090752
 31
0.0
100
AcDbText
 73
     2
  0
CIRCLE
  5
2B9
330
1F
100
AcDbEntity
  8
枠
  6
Continuous
 62
     7
370
    13
100
AcDbCircle
 10
1.094296159149103
 20
117.5976349090752
 30
0.0
 40
0.1397542485937358
  0
TEXT
  5
2BA
330
1F
100
AcDbEntity
  8
枠
  6
Continuous
 62
     7
370
    13
100
AcDbText
 10
0.4110122662908151
 20
117.5076526959781
 30
0.0
 40
0.1915708812260526
  1
8
  7
ＭＳ ゴシック
 72
     1
 11
0.4732961591491041
 21
117.6034381365912
 31
0.0
100
AcDbText
 73
     2
  0
CIRCLE
  5
2BB
330
1F
100
AcDbEntity
  8
枠
  6
Continuous
 62
     7
370
    13
100
AcDbCircle
 10
0.4732961591491041
 20
117.5969381365911
 30
0.0
 40
0.1397542485937358
  0
TEXT
  5
2BC
330
1F
100
AcDbEntity
  8
枠
  6
Continuous
 62
     7
370
    13
100
AcDbText
 10
-0.92427162656747
 20
117.5062529080155
 30
0.0
 40
0.1915708812260526
  1
11
  7
ＭＳ ゴシック
 72
     1
 11
-0.7997038408508921
 21
117.6020383486285
 31
0.0
100
AcDbText
 73
     2
  0
CIRCLE
  5
2BD
330
1F
100
AcDbEntity
  8
枠
  6
Continuous
 62
     7
370
    13
100
AcDbCircle
 10
-0.7997038408508921
 20
117.5955383486285
 30
0.0
 40
0.1397542485937358
  0
TEXT
  5
2BE
330
1F
100
AcDbEntity
  8
枠
  6
Continuous
 62
     7
370
    13
100
AcDbText
 10
-1.34027162656747
 20
117.5079971464192
 30
0.0
 40
0.1915708812260526
  1
12
  7
ＭＳ ゴシック
 72
     1
 11
-1.215703840850892
 21
117.6037825870322
 31
0.0
100
AcDbText
 73
     2
  0
CIRCLE
  5
2BF
330
1F
100
AcDbEntity
  8
枠
  6
Continuous
 62
     7
370
    13
100
AcDbCircle
 10
-1.215703840850892
 20
117.5972825870322
 30
0.0
 40
0.1397542485937358
  0
TEXT
  5
2C0
330
1F
100
AcDbEntity
  8
枠
  6
Continuous
 62
     7
370
    13
100
AcDbText
 10
-1.687271626567468
 20
117.5072219293509
 30
0.0
 40
0.1915708812260526
  1
13
  7
ＭＳ ゴシック
 72
     1
 11
-1.56270384085089
 21
117.6030073699639
 31
0.0
100
AcDbText
 73
     2
  0
CIRCLE
  5
2C1
330
1F
100
AcDbEntity
  8
枠
  6
Continuous
 62
     7
370
    13
100
AcDbCircle
 10
-1.56270384085089
 20
117.5965073699639
 30
0.0
 40
0.1397542485937358
  0
TEXT
  5
2C2
330
1F
100
AcDbEntity
  8
枠
  6
Continuous
 62
     7
370
    13
100
AcDbText
 10
-2.349271626567471
 20
117.5079694600953
 30
0.0
 40
0.1915708812260526
  1
15
  7
ＭＳ ゴシック
 72
     1
 11
-2.224703840850893
 21
117.6037549007083
 31
0.0
100
AcDbText
 73
     2
  0
CIRCLE
  5
2C3
330
1F
100
AcDbEntity
  8
枠
  6
Continuous
 62
     7
370
    13
100
AcDbCircle
 10
-2.224703840850893
 20
117.5972549007084
 30
0.0
 40
0.1397542485937358
  0
TEXT
  5
2C4
330
1F
100
AcDbEntity
  8
枠
  6
Continuous
 62
     7
370
    13
100
AcDbText
 10
-2.852271626567471
 20
117.5074857637313
 30
0.0
 40
0.1915708812260526
  1
16
  7
ＭＳ ゴシック
 72
     1
 11
-2.727703840850893
 21
117.6032712043443
 31
0.0
100
AcDbText
 73
     2
  0
CIRCLE
  5
2C5
330
1F
100
AcDbEntity
  8
枠
  6
Continuous
 62
     7
370
    13
100
AcDbCircle
 10
-2.727703840850893
 20
117.5967712043443
 30
0.0
 40
0.1397542485937358
  0
TEXT
  5
2C6
330
1F
100
AcDbEntity
  8
枠
  6
Continuous
 62
     7
370
    13
100
AcDbText
 10
-3.513271626567469
 20
117.5088326219571
 30
0.0
 40
0.1915708812260526
  1
18
  7
ＭＳ ゴシック
 72
     1
 11
-3.388703840850891
 21
117.6046180625701
 31
0.0
100
AcDbText
 73
     2
  0
CIRCLE
  5
2C7
330
1F
100
AcDbEntity
  8
枠
  6
Continuous
 62
     7
370
    13
100
AcDbCircle
 10
-3.388703840850891
 20
117.5981180625701
 30
0.0
 40
0.1397542485937358
  0
TEXT
  5
2C8
330
1F
100
AcDbEntity
  8
枠
  6
Continuous
 62
     7
370
    13
100
AcDbText
 10
-4.839271626567473
 20
117.5104596006361
 30
0.0
 40
0.1915708812260526
  1
21
  7
ＭＳ ゴシック
 72
     1
 11
-4.714703840850895
 21
117.6062450412492
 31
0.0
100
AcDbText
 73
     2
  0
CIRCLE
  5
2C9
330
1F
100
AcDbEntity
  8
枠
  6
Continuous
 62
     7
370
    13
100
AcDbCircle
 10
-4.714703840850895
 20
117.5997450412492
 30
0.0
 40
0.1397542485937358
  0
TEXT
  5
2CA
330
1F
100
AcDbEntity
  8
枠
  6
Continuous
 62
     7
370
    13
100
AcDbText
 10
-5.438271626567475
 20
117.5091404287342
 30
0.0
 40
0.1915708812260526
  1
23
  7
ＭＳ ゴシック
 72
     1
 11
-5.313703840850897
 21
117.6049258693472
 31
0.0
100
AcDbText
 73
     2
  0
CIRCLE
  5
2CB
330
1F
100
AcDbEntity
  8
枠
  6
Continuous
 62
     7
370
    13
100
AcDbCircle
 10
-5.313703840850897
 20
117.5984258693472
 30
0.0
 40
0.1397542485937358
  0
TEXT
  5
2CC
330
1F
100
AcDbEntity
  8
枠
  6
Continuous
 62
     7
370
    13
100
AcDbText
 10
-5.832271626567475
 20
117.5111631589838
 30
0.0
 40
0.1915708812260526
  1
25
  7
ＭＳ ゴシック
 72
     1
 11
-5.707703840850897
 21
117.6069485995969
 31
0.0
100
AcDbText
 73
     2
  0
CIRCLE
  5
2CD
330
1F
100
AcDbEntity
  8
枠
  6
Continuous
 62
     7
370
    13
100
AcDbCircle
 10
-5.707703840850897
 20
117.6004485995969
 30
0.0
 40
0.1397542485937358
  0
TEXT
  5
2CE
330
1F
100
AcDbEntity
  8
枠
  6
Continuous
 62
     7
370
    13
100
AcDbText
 10
-6.292271626567476
 20
117.508348925593
 30
0.0
 40
0.1915708812260526
  1
27
  7
ＭＳ ゴシック
 72
     1
 11
-6.167703840850898
 21
117.6041343662061
 31
0.0
100
AcDbText
 73
     2
  0
CIRCLE
  5
2CF
330
1F
100
AcDbEntity
  8
枠
  6
Continuous
 62
     7
370
    13
100
AcDbCircle
 10
-6.167703840850898
 20
117.5976343662061
 30
0.0
 40
0.1397542485937358
  0
TEXT
  5
2D0
330
1F
100
AcDbEntity
  8
枠
  6
Continuous
 62
     7
370
    13
100
AcDbText
 10
2.2234349035222
 20
117.1257772666273
 30
0.0
 40
0.1915708812260526
  1
1
  7
ＭＳ ゴシック
 11
2.2234349035222
 21
117.2215627072404
 31
0.0
100
AcDbText
 73
     2
  0
CIRCLE
  5
2D1
330
1F
100
AcDbEntity
  8
枠
  6
Continuous
 62
     7
370
    13
100
AcDbCircle
 10
2.2859349035222
 20
117.2150627072403
 30
0.0
 40
0.1397542485937358
  0
TEXT
  5
2D2
330
1F
100
AcDbEntity
  8
枠
  6
Continuous
 62
     7
370
    13
100
AcDbText
 10
1.751554315137
 20
117.1256429065262
 30
0.0
 40
0.1915708812260526
  1
3
  7
ＭＳ ゴシック
 11
1.751554315137
 21
117.2214283471392
 31
0.0
100
AcDbText
 73
     2
  0
CIRCLE
  5
2D3
330
1F
100
AcDbEntity
  8
枠
  6
Continuous
 62
     7
370
    13
100
AcDbCircle
 10
1.814054315137
 20
117.2149283471392
 30
0.0
 40
0.1397542485937358
  0
TEXT
  5
2D4
330
1F
100
AcDbEntity
  8
枠
  6
Continuous
 62
     7
370
    13
100
AcDbText
 10
1.269591089669824
 20
117.125141295482
 30
0.0
 40
0.1915708812260526
  1
5
  7
ＭＳ ゴシック
 11
1.269591089669824
 21
117.220926736095
 31
0.0
100
AcDbText
 73
     2
  0
CIRCLE
  5
2D5
330
1F
100
AcDbEntity
  8
枠
  6
Continuous
 62
     7
370
    13
100
AcDbCircle
 10
1.332091089669824
 20
117.214426736095
 30
0.0
 40
0.1397542485937358
  0
TEXT
  5
2D6
330
1F
100
AcDbEntity
  8
枠
  6
Continuous
 62
     7
370
    13
100
AcDbText
 10
0.629995858168261
 20
117.1251607369815
 30
0.0
 40
0.1915708812260526
  1
7
  7
ＭＳ ゴシック
 11
0.629995858168261
 21
117.2209461775945
 31
0.0
100
AcDbText
 73
     2
  0
CIRCLE
  5
2D7
330
1F
100
AcDbEntity
  8
枠
  6
Continuous
 62
     7
370
    13
100
AcDbCircle
 10
0.692495858168261
 20
117.2144461775945
 30
0.0
 40
0.1397542485937358
  0
TEXT
  5
2D8
330
1F
100
AcDbEntity
  8
枠
  6
Continuous
 62
     7
370
    13
100
AcDbText
 10
0.2125192347155327
 20
117.1260869734463
 30
0.0
 40
0.1915708812260526
  1
9
  7
ＭＳ ゴシック
 11
0.2125192347155327
 21
117.2218724140593
 31
0.0
100
AcDbText
 73
     2
  0
CIRCLE
  5
2D9
330
1F
100
AcDbEntity
  8
枠
  6
Continuous
 62
     7
370
    13
100
AcDbCircle
 10
0.2750192347155327
 20
117.2153724140593
 30
0.0
 40
0.1397542485937358
  0
TEXT
  5
2DA
330
1F
100
AcDbEntity
  8
枠
  6
Continuous
 62
     7
370
    13
100
AcDbText
 10
-1.893912891809482
 20
117.1250077496845
 30
0.0
 40
0.1915708812260526
  1
14
  7
ＭＳ ゴシック
 11
-1.893912891809482
 21
117.2207931902976
 31
0.0
100
AcDbText
 73
     2
  0
CIRCLE
  5
2DB
330
1F
100
AcDbEntity
  8
枠
  6
Continuous
 62
     7
370
    13
100
AcDbCircle
 10
-1.768912891809482
 20
117.2142931902976
 30
0.0
 40
0.1397542485937358
  0
TEXT
  5
2DC
330
1F
100
AcDbEntity
  8
枠
  6
Continuous
 62
     7
370
    13
100
AcDbText
 10
-3.073691340133589
 20
117.125400967866
 30
0.0
 40
0.1915708812260526
  1
17
  7
ＭＳ ゴシック
 11
-3.073691340133589
 21
117.221186408479
 31
0.0
100
AcDbText
 73
     2
  0
CIRCLE
  5
2DD
330
1F
100
AcDbEntity
  8
枠
  6
Continuous
 62
     7
370
    13
100
AcDbCircle
 10
-2.948691340133589
 20
117.214686408479
 30
0.0
 40
0.1397542485937358
  0
TEXT
  5
2DE
330
1F
100
AcDbEntity
  8
枠
  6
Continuous
 62
     7
370
    13
100
AcDbText
 10
-3.81524563782941
 20
117.126470419984
 30
0.0
 40
0.1915708812260526
  1
19
  7
ＭＳ ゴシック
 11
-3.81524563782941
 21
117.2222558605971
 31
0.0
100
AcDbText
 73
     2
  0
CIRCLE
  5
2DF
330
1F
100
AcDbEntity
  8
枠
  6
Continuous
 62
     7
370
    13
100
AcDbCircle
 10
-3.69024563782941
 20
117.2157558605971
 30
0.0
 40
0.1397542485937358
  0
TEXT
  5
2E0
330
1F
100
AcDbEntity
  8
枠
  6
Continuous
 62
     7
370
    13
100
AcDbText
 10
-5.107578632054768
 20
117.1256691451992
 30
0.0
 40
0.1915708812260526
  1
22
  7
ＭＳ ゴシック
 11
-5.107578632054768
 21
117.2214545858122
 31
0.0
100
AcDbText
 73
     2
  0
CIRCLE
  5
2E1
330
1F
100
AcDbEntity
  8
枠
  6
Continuous
 62
     7
370
    13
100
AcDbCircle
 10
-4.982578632054768
 20
117.2149545858122
 30
0.0
 40
0.1397542485937358
  0
TEXT
  5
2E2
330
1F
100
AcDbEntity
  8
枠
  6
Continuous
 62
     7
370
    13
100
AcDbText
 10
-5.642944327108241
 20
117.1255518854745
 30
0.0
 40
0.1915708812260526
  1
24
  7
ＭＳ ゴシック
 11
-5.642944327108241
 21
117.2213373260876
 31
0.0
100
AcDbText
 73
     2
  0
CIRCLE
  5
2E3
330
1F
100
AcDbEntity
  8
枠
  6
Continuous
 62
     7
370
    13
100
AcDbCircle
 10
-5.517944327108241
 20
117.2148373260876
 30
0.0
 40
0.1397542485937358
  0
TEXT
  5
2E4
330
1F
100
AcDbEntity
  8
枠
  6
Continuous
 62
     7
370
    13
100
AcDbText
 10
-6.04723787189246
 20
117.1258694638954
 30
0.0
 40
0.1915708812260526
  1
26
  7
ＭＳ ゴシック
 11
-6.04723787189246
 21
117.2216549045084
 31
0.0
100
AcDbText
 73
     2
  0
CIRCLE
  5
2E5
330
1F
100
AcDbEntity
  8
枠
  6
Continuous
 62
     7
370
    13
100
AcDbCircle
 10
-5.92223787189246
 20
117.2151549045084
 30
0.0
 40
0.1397542485937358
  0
LINE
  5
2E6
330
1F
100
AcDbEntity
  8
枠
  6
Continuous
 62
     7
370
    13
100
AcDbLine
 10
-4.049703840850901
 20
114.9585553479221
 30
0.0
 11
-4.049703840850901
 21
117.4583638139764
 31
0.0
  0
LINE
  5
2E7
330
1F
100
AcDbEntity
  8
枠
  6
Continuous
 62
     7
370
    13
100
AcDbLine
 10
-0.0917038408508937
 20
114.9585553479221
 30
0.0
 11
-0.0917038408508937
 21
117.4571838879974
 31
0.0
  0
TEXT
  5
2E8
330
1F
100
AcDbEntity
  8
枠
  6
Continuous
 62
     7
370
    13
100
AcDbText
 10
-0.2162716265674716
 20
117.5076526959781
 30
0.0
 40
0.1915708812260526
  1
10
  7
ＭＳ ゴシック
 72
     1
 11
-0.0917038408508937
 21
117.6034381365912
 31
0.0
100
AcDbText
 73
     2
  0
CIRCLE
  5
2E9
330
1F
100
AcDbEntity
  8
枠
  6
Continuous
 62
     7
370
    13
100
AcDbCircle
 10
-0.0917038408508937
 20
117.5969381365911
 30
0.0
 40
0.1397542485937358
  0
TEXT
  5
2EA
330
1F
100
AcDbEntity
  8
枠
  6
Continuous
 62
     7
370
    13
100
AcDbText
 10
-4.174271626567479
 20
117.5076526959781
 30
0.0
 40
0.1915708812260526
  1
20
  7
ＭＳ ゴシック
 72
     1
 11
-4.049703840850901
 21
117.6034381365912
 31
0.0
100
AcDbText
 73
     2
  0
CIRCLE
  5
2EB
330
1F
100
AcDbEntity
  8
枠
  6
Continuous
 62
     7
370
    13
100
AcDbCircle
 10
-4.049703840850901
 20
117.5969381365911
 30
0.0
 40
0.1397542485937358
  0
TEXT
  5
2EC
330
1F
100
AcDbEntity
  8
枠
  6
Continuous
 62
     7
370
    13
100
AcDbText
 10
13.87686051803918
 20
119.3277895012711
 30
0.0
 40
0.2681992337164765
  1
NO
  7
ＭＳ ゴシック
 72
     1
 11
14.05125541804239
 21
119.4618891181294
 31
0.0
100
AcDbText
 73
     2
  0
TEXT
  5
2ED
330
1F
100
AcDbEntity
  8
枠
  6
Continuous
 62
     7
370
    13
100
AcDbText
 10
16.19409918248914
 20
119.349382696341
 30
0.0
 40
0.2681992337164765
  1
名称
  7
ＭＳ ゴシック
 72
     1
 11
16.54288898249556
 21
119.4834823131992
 31
0.0
100
AcDbText
 73
     2
  0
LINE
  5
2EE
330
1F
100
AcDbEntity
  8
枠
  6
Continuous
 62
     7
370
    13
100
AcDbLine
 10
13.63940788905031
 20
119.7040728145942
 30
0.0
 11
13.63940788905031
 21
105.7040728145942
 31
0.0
  0
LINE
  5
2EF
330
1F
100
AcDbEntity
  8
枠
  6
Continuous
 62
     7
370
    13
100
AcDbLine
 10
13.63940788905031
 20
119.7040728145942
 30
0.0
 11
18.63940788905031
 21
119.7040728145942
 31
0.0
  0
LINE
  5
2F0
330
1F
100
AcDbEntity
  8
枠
  6
Continuous
 62
     7
370
    13
100
AcDbLine
 10
18.63940788905031
 20
119.7040728145942
 30
0.0
 11
18.63940788905031
 21
105.7040728145942
 31
0.0
  0
LINE
  5
2F1
330
1F
100
AcDbEntity
  8
枠
  6
Continuous
 62
     7
370
    13
100
AcDbLine
 10
14.44637007594081
 20
119.7040728145942
 30
0.0
 11
14.44637007594081
 21
105.7040728145942
 31
0.0
  0
LINE
  5
2F2
330
1F
100
AcDbEntity
  8
枠
  6
Continuous
 62
     7
370
    13
100
AcDbLine
 10
13.63940788905031
 20
119.2040728145942
 30
0.0
 11
18.6394078890503
 21
119.2040728145942
 31
0.0
  0
LINE
  5
2F3
330
1F
100
AcDbEntity
  8
枠
  6
Continuous
 62
     7
370
    13
100
AcDbLine
 10
13.63940788905031
 20
118.7040728145942
 30
0.0
 11
18.6394078890503
 21
118.7040728145942
 31
0.0
  0
LINE
  5
2F4
330
1F
100
AcDbEntity
  8
枠
  6
Continuous
 62
     7
370
    13
100
AcDbLine
 10
13.63940788905031
 20
118.2040728145942
 30
0.0
 11
18.6394078890503
 21
118.2040728145942
 31
0.0
  0
LINE
  5
2F5
330
1F
100
AcDbEntity
  8
枠
  6
Continuous
 62
     7
370
    13
100
AcDbLine
 10
13.63940788905031
 20
117.7040728145942
 30
0.0
 11
18.6394078890503
 21
117.7040728145942
 31
0.0
  0
LINE
  5
2F6
330
1F
100
AcDbEntity
  8
枠
  6
Continuous
 62
     7
370
    13
100
AcDbLine
 10
13.63940788905031
 20
117.2040728145942
 30
0.0
 11
18.6394078890503
 21
117.2040728145942
 31
0.0
  0
LINE
  5
2F7
330
1F
100
AcDbEntity
  8
枠
  6
Continuous
 62
     7
370
    13
100
AcDbLine
 10
13.63940788905031
 20
116.7040728145942
 30
0.0
 11
18.6394078890503
 21
116.7040728145942
 31
0.0
  0
LINE
  5
2F8
330
1F
100
AcDbEntity
  8
枠
  6
Continuous
 62
     7
370
    13
100
AcDbLine
 10
13.63940788905031
 20
116.2040728145942
 30
0.0
 11
18.6394078890503
 21
116.2040728145942
 31
0.0
  0
LINE
  5
2F9
330
1F
100
AcDbEntity
  8
枠
  6
Continuous
 62
     7
370
    13
100
AcDbLine
 10
13.63940788905031
 20
115.7040728145942
 30
0.0
 11
18.6394078890503
 21
115.7040728145942
 31
0.0
  0
LINE
  5
2FA
330
1F
100
AcDbEntity
  8
枠
  6
Continuous
 62
     7
370
    13
100
AcDbLine
 10
13.63940788905031
 20
115.2040728145942
 30
0.0
 11
18.6394078890503
 21
115.2040728145942
 31
0.0
  0
LINE
  5
2FB
330
1F
100
AcDbEntity
  8
枠
  6
Continuous
 62
     7
370
    13
100
AcDbLine
 10
13.63940788905031
 20
114.7040728145942
 30
0.0
 11
18.6394078890503
 21
114.7040728145942
 31
0.0
  0
LINE
  5
2FC
330
1F
100
AcDbEntity
  8
枠
  6
Continuous
 62
     7
370
    13
100
AcDbLine
 10
13.63940788905031
 20
114.2040728145942
 30
0.0
 11
18.6394078890503
 21
114.2040728145942
 31
0.0
  0
LINE
  5
2FD
330
1F
100
AcDbEntity
  8
枠
  6
Continuous
 62
     7
370
    13
100
AcDbLine
 10
13.63940788905031
 20
113.7040728145942
 30
0.0
 11
18.6394078890503
 21
113.7040728145942
 31
0.0
  0
LINE
  5
2FE
330
1F
100
AcDbEntity
  8
枠
  6
Continuous
 62
     7
370
    13
100
AcDbLine
 10
13.63940788905031
 20
113.2040728145942
 30
0.0
 11
18.6394078890503
 21
113.2040728145942
 31
0.0
  0
LINE
  5
2FF
330
1F
100
AcDbEntity
  8
枠
  6
Continuous
 62
     7
370
    13
100
AcDbLine
 10
13.63940788905031
 20
112.7040728145942
 30
0.0
 11
18.6394078890503
 21
112.7040728145942
 31
0.0
  0
LINE
  5
300
330
1F
100
AcDbEntity
  8
枠
  6
Continuous
 62
     7
370
    13
100
AcDbLine
 10
13.63940788905031
 20
112.2040728145942
 30
0.0
 11
18.6394078890503
 21
112.2040728145942
 31
0.0
  0
LINE
  5
301
330
1F
100
AcDbEntity
  8
枠
  6
Continuous
 62
     7
370
    13
100
AcDbLine
 10
13.63940788905031
 20
111.7040728145942
 30
0.0
 11
18.6394078890503
 21
111.7040728145942
 31
0.0
  0
LINE
  5
302
330
1F
100
AcDbEntity
  8
枠
  6
Continuous
 62
     7
370
    13
100
AcDbLine
 10
13.63940788905031
 20
111.2040728145942
 30
0.0
 11
18.6394078890503
 21
111.2040728145942
 31
0.0
  0
LINE
  5
303
330
1F
100
AcDbEntity
  8
枠
  6
Continuous
 62
     7
370
    13
100
AcDbLine
 10
13.63940788905031
 20
110.7040728145942
 30
0.0
 11
18.6394078890503
 21
110.7040728145942
 31
0.0
  0
LINE
  5
304
330
1F
100
AcDbEntity
  8
枠
  6
Continuous
 62
     7
370
    13
100
AcDbLine
 10
13.63940788905031
 20
110.2040728145942
 30
0.0
 11
18.6394078890503
 21
110.2040728145942
 31
0.0
  0
LINE
  5
305
330
1F
100
AcDbEntity
  8
枠
  6
Continuous
 62
     7
370
    13
100
AcDbLine
 10
13.63940788905031
 20
109.7040728145942
 30
0.0
 11
18.6394078890503
 21
109.7040728145942
 31
0.0
  0
LINE
  5
306
330
1F
100
AcDbEntity
  8
枠
  6
Continuous
 62
     7
370
    13
100
AcDbLine
 10
18.63940788905031
 20
119.7040728145942
 30
0.0
 11
18.63940788905031
 21
119.2040728145942
 31
0.0
  0
TEXT
  5
307
330
1F
100
AcDbEntity
  8
枠
  6
Continuous
 62
     7
370
    13
100
AcDbText
 10
13.96405796804079
 20
118.8277895012711
 30
0.0
 40
0.2681992337164765
  1
1
  7
ＭＳ ゴシック
 72
     1
 11
14.05125541804239
 21
118.9618891181294
 31
0.0
100
AcDbText
 73
     2
  0
TEXT
  5
308
330
1F
100
AcDbEntity
  8
枠
  6
Continuous
 62
     7
370
    13
100
AcDbText
 10
13.96405796804079
 20
118.3277895012711
 30
0.0
 40
0.2681992337164765
  1
2
  7
ＭＳ ゴシック
 72
     1
 11
14.05125541804239
 21
118.4618891181294
 31
0.0
100
AcDbText
 73
     2
  0
TEXT
  5
309
330
1F
100
AcDbEntity
  8
枠
  6
Continuous
 62
     7
370
    13
100
AcDbText
 10
13.96405796804079
 20
117.8277895012711
 30
0.0
 40
0.2681992337164765
  1
3
  7
ＭＳ ゴシック
 72
     1
 11
14.05125541804239
 21
117.9618891181294
 31
0.0
100
AcDbText
 73
     2
  0
TEXT
  5
30A
330
1F
100
AcDbEntity
  8
枠
  6
Continuous
 62
     7
370
    13
100
AcDbText
 10
13.96405796804079
 20
117.3277895012711
 30
0.0
 40
0.2681992337164765
  1
4
  7
ＭＳ ゴシック
 72
     1
 11
14.05125541804239
 21
117.4618891181294
 31
0.0
100
AcDbText
 73
     2
  0
TEXT
  5
30B
330
1F
100
AcDbEntity
  8
枠
  6
Continuous
 62
     7
370
    13
100
AcDbText
 10
13.96405796804079
 20
116.8277895012711
 30
0.0
 40
0.2681992337164765
  1
5
  7
ＭＳ ゴシック
 72
     1
 11
14.05125541804239
 21
116.9618891181294
 31
0.0
100
AcDbText
 73
     2
  0
TEXT
  5
30C
330
1F
100
AcDbEntity
  8
枠
  6
Continuous
 62
     7
370
    13
100
AcDbText
 10
13.96405796804079
 20
116.3277895012711
 30
0.0
 40
0.2681992337164765
  1
6
  7
ＭＳ ゴシック
 72
     1
 11
14.05125541804239
 21
116.4618891181294
 31
0.0
100
AcDbText
 73
     2
  0
TEXT
  5
30D
330
1F
100
AcDbEntity
  8
枠
  6
Continuous
 62
     7
370
    13
100
AcDbText
 10
13.96405796804079
 20
115.8277895012711
 30
0.0
 40
0.2681992337164765
  1
7
  7
ＭＳ ゴシック
 72
     1
 11
14.05125541804239
 21
115.9618891181294
 31
0.0
100
AcDbText
 73
     2
  0
TEXT
  5
30E
330
1F
100
AcDbEntity
  8
枠
  6
Continuous
 62
     7
370
    13
100
AcDbText
 10
13.96405796804079
 20
115.3277895012711
 30
0.0
 40
0.2681992337164765
  1
8
  7
ＭＳ ゴシック
 72
     1
 11
14.05125541804239
 21
115.4618891181294
 31
0.0
100
AcDbText
 73
     2
  0
TEXT
  5
30F
330
1F
100
AcDbEntity
  8
枠
  6
Continuous
 62
     7
370
    13
100
AcDbText
 10
13.96405796804079
 20
114.8277895012711
 30
0.0
 40
0.2681992337164765
  1
9
  7
ＭＳ ゴシック
 72
     1
 11
14.05125541804239
 21
114.9618891181294
 31
0.0
100
AcDbText
 73
     2
  0
TEXT
  5
310
330
1F
100
AcDbEntity
  8
枠
  6
Continuous
 62
     7
370
    13
100
AcDbText
 10
13.87686051803918
 20
114.3277895012711
 30
0.0
 40
0.2681992337164765
  1
10
  7
ＭＳ ゴシック
 72
     1
 11
14.05125541804239
 21
114.4618891181294
 31
0.0
100
AcDbText
 73
     2
  0
TEXT
  5
311
330
1F
100
AcDbEntity
  8
枠
  6
Continuous
 62
     7
370
    13
100
AcDbText
 10
13.87686051803918
 20
113.8277895012711
 30
0.0
 40
0.2681992337164765
  1
11
  7
ＭＳ ゴシック
 72
     1
 11
14.05125541804239
 21
113.9618891181294
 31
0.0
100
AcDbText
 73
     2
  0
TEXT
  5
312
330
1F
100
AcDbEntity
  8
枠
  6
Continuous
 62
     7
370
    13
100
AcDbText
 10
13.87686051803918
 20
113.3277895012711
 30
0.0
 40
0.2681992337164765
  1
12
  7
ＭＳ ゴシック
 72
     1
 11
14.05125541804239
 21
113.4618891181294
 31
0.0
100
AcDbText
 73
     2
  0
TEXT
  5
313
330
1F
100
AcDbEntity
  8
枠
  6
Continuous
 62
     7
370
    13
100
AcDbText
 10
13.87686051803918
 20
112.8277895012711
 30
0.0
 40
0.2681992337164765
  1
13
  7
ＭＳ ゴシック
 72
     1
 11
14.05125541804239
 21
112.9618891181294
 31
0.0
100
AcDbText
 73
     2
  0
TEXT
  5
314
330
1F
100
AcDbEntity
  8
枠
  6
Continuous
 62
     7
370
    13
100
AcDbText
 10
13.87686051803918
 20
112.3277895012711
 30
0.0
 40
0.2681992337164765
  1
14
  7
ＭＳ ゴシック
 72
     1
 11
14.05125541804239
 21
112.4618891181294
 31
0.0
100
AcDbText
 73
     2
  0
TEXT
  5
315
330
1F
100
AcDbEntity
  8
枠
  6
Continuous
 62
     7
370
    13
100
AcDbText
 10
13.87686051803918
 20
111.8277895012711
 30
0.0
 40
0.2681992337164765
  1
15
  7
ＭＳ ゴシック
 72
     1
 11
14.05125541804239
 21
111.9618891181294
 31
0.0
100
AcDbText
 73
     2
  0
TEXT
  5
316
330
1F
100
AcDbEntity
  8
枠
  6
Continuous
 62
     7
370
    13
100
AcDbText
 10
13.87686051803918
 20
111.3277895012711
 30
0.0
 40
0.2681992337164765
  1
16
  7
ＭＳ ゴシック
 72
     1
 11
14.05125541804239
 21
111.4618891181294
 31
0.0
100
AcDbText
 73
     2
  0
TEXT
  5
317
330
1F
100
AcDbEntity
  8
枠
  6
Continuous
 62
     7
370
    13
100
AcDbText
 10
13.87686051803918
 20
110.8277895012711
 30
0.0
 40
0.2681992337164765
  1
17
  7
ＭＳ ゴシック
 72
     1
 11
14.05125541804239
 21
110.9618891181294
 31
0.0
100
AcDbText
 73
     2
  0
TEXT
  5
318
330
1F
100
AcDbEntity
  8
枠
  6
Continuous
 62
     7
370
    13
100
AcDbText
 10
13.87686051803918
 20
110.3277895012711
 30
0.0
 40
0.2681992337164765
  1
18
  7
ＭＳ ゴシック
 72
     1
 11
14.05125541804239
 21
110.4618891181294
 31
0.0
100
AcDbText
 73
     2
  0
TEXT
  5
319
330
1F
100
AcDbEntity
  8
枠
  6
Continuous
 62
     7
370
    13
100
AcDbText
 10
13.87686051803918
 20
109.8277895012711
 30
0.0
 40
0.2681992337164765
  1
19
  7
ＭＳ ゴシック
 72
     1
 11
14.05125541804239
 21
109.9618891181294
 31
0.0
100
AcDbText
 73
     2
  0
LINE
  5
31A
330
1F
100
AcDbEntity
  8
枠
  6
Continuous
 62
     7
370
    13
100
AcDbLine
 10
13.63940788905031
 20
109.2040728145942
 30
0.0
 11
18.6394078890503
 21
109.2040728145942
 31
0.0
  0
LINE
  5
31B
330
1F
100
AcDbEntity
  8
枠
  6
Continuous
 62
     7
370
    13
100
AcDbLine
 10
13.63940788905031
 20
108.7040728145942
 30
0.0
 11
18.6394078890503
 21
108.7040728145942
 31
0.0
  0
LINE
  5
31C
330
1F
100
AcDbEntity
  8
枠
  6
Continuous
 62
     7
370
    13
100
AcDbLine
 10
13.63940788905031
 20
108.2040728145942
 30
0.0
 11
18.6394078890503
 21
108.2040728145942
 31
0.0
  0
LINE
  5
31D
330
1F
100
AcDbEntity
  8
枠
  6
Continuous
 62
     7
370
    13
100
AcDbLine
 10
13.63940788905031
 20
107.7040728145942
 30
0.0
 11
18.6394078890503
 21
107.7040728145942
 31
0.0
  0
LINE
  5
31E
330
1F
100
AcDbEntity
  8
枠
  6
Continuous
 62
     7
370
    13
100
AcDbLine
 10
13.63940788905031
 20
107.2040728145942
 30
0.0
 11
18.6394078890503
 21
107.2040728145942
 31
0.0
  0
LINE
  5
31F
330
1F
100
AcDbEntity
  8
枠
  6
Continuous
 62
     7
370
    13
100
AcDbLine
 10
13.63940788905031
 20
106.7040728145942
 30
0.0
 11
18.6394078890503
 21
106.7040728145942
 31
0.0
  0
LINE
  5
320
330
1F
100
AcDbEntity
  8
枠
  6
Continuous
 62
     7
370
    13
100
AcDbLine
 10
13.63940788905031
 20
106.2040728145942
 30
0.0
 11
18.6394078890503
 21
106.2040728145942
 31
0.0
  0
LINE
  5
321
330
1F
100
AcDbEntity
  8
枠
  6
Continuous
 62
     7
370
    13
100
AcDbLine
 10
13.63940788905031
 20
105.7040728145942
 30
0.0
 11
18.6394078890503
 21
105.7040728145942
 31
0.0
  0
TEXT
  5
322
330
1F
100
AcDbEntity
  8
枠
  6
Continuous
 62
     7
370
    13
100
AcDbText
 10
13.87686051803918
 20
109.3277895012711
 30
0.0
 40
0.2681992337164765
  1
20
  7
ＭＳ ゴシック
 72
     1
 11
14.05125541804239
 21
109.4618891181294
 31
0.0
100
AcDbText
 73
     2
  0
TEXT
  5
323
330
1F
100
AcDbEntity
  8
枠
  6
Continuous
 62
     7
370
    13
100
AcDbText
 10
13.87686051803918
 20
108.8277895012711
 30
0.0
 40
0.2681992337164765
  1
21
  7
ＭＳ ゴシック
 72
     1
 11
14.05125541804239
 21
108.9618891181294
 31
0.0
100
AcDbText
 73
     2
  0
TEXT
  5
324
330
1F
100
AcDbEntity
  8
枠
  6
Continuous
 62
     7
370
    13
100
AcDbText
 10
13.87686051803918
 20
108.3277895012711
 30
0.0
 40
0.2681992337164765
  1
22
  7
ＭＳ ゴシック
 72
     1
 11
14.05125541804239
 21
108.4618891181294
 31
0.0
100
AcDbText
 73
     2
  0
TEXT
  5
325
330
1F
100
AcDbEntity
  8
枠
  6
Continuous
 62
     7
370
    13
100
AcDbText
 10
13.87686051803918
 20
107.8277895012711
 30
0.0
 40
0.2681992337164765
  1
23
  7
ＭＳ ゴシック
 72
     1
 11
14.05125541804239
 21
107.9618891181294
 31
0.0
100
AcDbText
 73
     2
  0
TEXT
  5
326
330
1F
100
AcDbEntity
  8
枠
  6
Continuous
 62
     7
370
    13
100
AcDbText
 10
13.87686051803918
 20
107.3277895012711
 30
0.0
 40
0.2681992337164765
  1
24
  7
ＭＳ ゴシック
 72
     1
 11
14.05125541804239
 21
107.4618891181294
 31
0.0
100
AcDbText
 73
     2
  0
TEXT
  5
327
330
1F
100
AcDbEntity
  8
枠
  6
Continuous
 62
     7
370
    13
100
AcDbText
 10
13.87686051803918
 20
106.8277895012711
 30
0.0
 40
0.2681992337164765
  1
25
  7
ＭＳ ゴシック
 72
     1
 11
14.05125541804239
 21
106.9618891181294
 31
0.0
100
AcDbText
 73
     2
  0
TEXT
  5
328
330
1F
100
AcDbEntity
  8
枠
  6
Continuous
 62
     7
370
    13
100
AcDbText
 10
13.87686051803918
 20
106.3277895012711
 30
0.0
 40
0.2681992337164765
  1
26
  7
ＭＳ ゴシック
 72
     1
 11
14.05125541804239
 21
106.4618891181294
 31
0.0
100
AcDbText
 73
     2
  0
TEXT
  5
329
330
1F
100
AcDbEntity
  8
枠
  6
Continuous
 62
     7
370
    13
100
AcDbText
 10
13.87686051803918
 20
105.8277895012711
 30
0.0
 40
0.2681992337164765
  1
27
  7
ＭＳ ゴシック
 72
     1
 11
14.05125541804239
 21
105.9618891181294
 31
0.0
100
AcDbText
 73
     2
  0
LINE
  5
32A
330
1F
100
AcDbEntity
  8
枠
  6
Continuous
 62
     7
370
    13
100
AcDbLine
 10
-17.51406382430121
 20
100.0649359794484
 30
0.0
 11
-16.0140638243012
 21
100.0649359794484
 31
0.0
  0
LINE
  5
32B
330
1F
100
AcDbEntity
  8
枠
  6
Continuous
 62
     7
370
    13
100
AcDbLine
 10
-16.76406382430121
 20
100.0649359794484
 30
0.0
 11
-16.7640638243012
 21
95.06493597944844
 31
0.0
  0
LINE
  5
32C
330
1F
100
AcDbEntity
  8
枠
  6
Continuous
 62
     7
370
    13
100
AcDbLine
 10
-16.7640638243012
 20
95.06493597944844
 30
0.0
 11
-16.0140638243012
 21
95.06493597944844
 31
0.0
  0
LINE
  5
32D
330
1F
100
AcDbEntity
  8
枠
  6
Continuous
 62
     7
370
    13
100
AcDbLine
 10
-17.5140638243012
 20
99.01493597944844
 30
0.0
 11
-16.76406382430121
 21
99.01493597944844
 31
0.0
  0
TEXT
  5
32E
330
1F
100
AcDbEntity
  8
枠
  6
Continuous
 62
     7
370
    13
100
AcDbText
 10
-16.50632016371361
 20
100.311481126161
 30
0.0
 40
0.3831417624521087
  1
0ｍ
  7
ＭＳ ゴシック
 72
     1
 11
-16.13261680656387
 21
100.503052007387
 31
0.0
100
AcDbText
 73
     2
  0
LINE
  5
32F
330
1F
100
AcDbEntity
  8
枠
  6
Continuous
 62
     7
370
    13
100
AcDbLine
 10
-16.76406382430121
 20
100.0649359794484
 30
0.0
 11
-16.7640638243012
 21
115.0649359794484
 31
0.0
  0
LINE
  5
330
330
1F
100
AcDbEntity
  8
枠
  6
Continuous
 62
     7
370
    13
100
AcDbLine
 10
-17.5140638243012
 20
103.6649359794484
 30
0.0
 11
-16.76406382430121
 21
103.6649359794484
 31
0.0
  0
LINE
  5
331
330
1F
100
AcDbEntity
  8
枠
  6
Continuous
 62
     7
370
    13
100
AcDbLine
 10
-17.5140638243012
 20
105.6649359794484
 30
0.0
 11
-16.76406382430121
 21
105.6649359794484
 31
0.0
  0
LINE
  5
332
330
1F
100
AcDbEntity
  8
枠
  6
Continuous
 62
     7
370
    13
100
AcDbLine
 10
-17.5140638243012
 20
105.8649359794484
 30
0.0
 11
-16.76406382430121
 21
105.8649359794484
 31
0.0
  0
LINE
  5
333
330
1F
100
AcDbEntity
  8
枠
  6
Continuous
 62
     7
370
    13
100
AcDbLine
 10
-17.5140638243012
 20
106.8049359794484
 30
0.0
 11
-16.76406382430121
 21
106.8049359794484
 31
0.0
  0
LINE
  5
334
330
1F
100
AcDbEntity
  8
枠
  6
Continuous
 62
     7
370
    13
100
AcDbLine
 10
-17.5140638243012
 20
107.3349359794484
 30
0.0
 11
-16.76406382430121
 21
107.3349359794484
 31
0.0
  0
LINE
  5
335
330
1F
100
AcDbEntity
  8
枠
  6
Continuous
 62
     7
370
    13
100
AcDbLine
 10
-16.7640638243012
 20
110.0649359794484
 30
0.0
 11
-16.0140638243012
 21
110.0649359794484
 31
0.0
  0
LINE
  5
336
330
1F
100
AcDbEntity
  8
枠
  6
Continuous
 62
     7
370
    13
100
AcDbLine
 10
-17.5140638243012
 20
112.8649359794484
 30
0.0
 11
-16.7640638243012
 21
112.8649359794484
 31
0.0
  0
LINE
  5
337
330
1F
100
AcDbEntity
  8
枠
  6
Continuous
 62
     7
370
    13
100
AcDbLine
 10
-17.5140638243012
 20
113.8649359794484
 30
0.0
 11
-16.7640638243012
 21
113.8649359794484
 31
0.0
  0
TEXT
  5
338
330
1F
100
AcDbEntity
  8
枠
  6
Continuous
 62
     7
370
    13
100
AcDbText
 10
-19.77925175126625
 20
100.1164471874278
 30
0.0
 40
0.1915708812260526
  1
舞台床面
  7
ＭＳ ゴシック
 72
     1
 11
-19.28098060839994
 21
100.2122326280408
 31
0.0
100
AcDbText
 73
     2
  0
TEXT
  5
339
330
1F
100
AcDbEntity
  8
枠
  6
Continuous
 62
     7
370
    13
100
AcDbText
 10
-19.77925175126625
 20
99.17203656850992
 30
0.0
 40
0.1915708812260526
  1
客席前床
  7
ＭＳ ゴシック
 72
     1
 11
-19.28098060839994
 21
99.26782200912295
 31
0.0
100
AcDbText
 73
     2
  0
TEXT
  5
33A
330
1F
100
AcDbEntity
  8
枠
  6
Continuous
 62
     7
370
    13
100
AcDbText
 10
-19.7781712155577
 20
98.77203656850993
 30
0.0
 40
0.1915708812260526
  1
1.05ｍ3.465尺
  7
ＭＳ ゴシック
 72
     1
 11
-18.96848060839994
 21
98.86782200912296
 31
0.0
100
AcDbText
 73
     2
  0
TEXT
  5
33B
330
1F
100
AcDbEntity
  8
枠
  6
Continuous
 62
     7
370
    13
100
AcDbText
 10
-16.50632016371361
 20
95.26529613499387
 30
0.0
 40
0.3831417624521087
  1
5ｍ
  7
ＭＳ ゴシック
 72
     1
 11
-16.13261680656387
 21
95.45686701621993
 31
0.0
100
AcDbText
 73
     2
  0
LINE
  5
33C
330
1F
100
AcDbEntity
  8
枠
  6
Continuous
 62
     7
370
    13
100
AcDbLine
 10
-16.7640638243012
 20
115.0649359794484
 30
0.0
 11
-16.0140638243012
 21
115.0649359794484
 31
0.0
  0
TEXT
  5
33D
330
1F
100
AcDbEntity
  8
枠
  6
Continuous
 62
     7
370
    13
100
AcDbText
 10
-16.50588794943019
 20
115.3247674101014
 30
0.0
 40
0.3831417624521087
  1
15ｍ
  7
ＭＳ ゴシック
 72
     1
 11
-16.00761680656387
 21
115.5163382913274
 31
0.0
100
AcDbText
 73
     2
  0
TEXT
  5
33E
330
1F
100
AcDbEntity
  8
枠
  6
Continuous
 62
     7
370
    13
100
AcDbText
 10
-19.77968396554968
 20
114.3728539665084
 30
0.0
 40
0.1915708812260526
  1
スノコ
  7
ＭＳ ゴシック
 72
     1
 11
-19.40598060839994
 21
114.4686394071215
 31
0.0
100
AcDbText
 73
     2
  0
TEXT
  5
33F
330
1F
100
AcDbEntity
  8
枠
  6
Continuous
 62
     7
370
    13
100
AcDbText
 10
-19.77795510841599
 20
113.9992460774399
 30
0.0
 40
0.1915708812260526
  1
13.80ｍ45.54尺
  7
ＭＳ ゴシック
 72
     1
 11
-18.90598060839994
 21
114.0950315180529
 31
0.0
100
AcDbText
 73
     2
  0
TEXT
  5
340
330
1F
100
AcDbEntity
  8
枠
  6
Continuous
 62
     7
370
    13
100
AcDbText
 10
-19.77881953698283
 20
113.311960901445
 30
0.0
 40
0.1915708812260526
  1
バトン飛切
  7
ＭＳ ゴシック
 72
     1
 11
-19.15598060839994
 21
113.4077463420581
 31
0.0
100
AcDbText
 73
     2
  0
TEXT
  5
341
330
1F
100
AcDbEntity
  8
枠
  6
Continuous
 62
     7
370
    13
100
AcDbText
 10
-19.77860342984112
 20
112.911960901445
 30
0.0
 40
0.1915708812260526
  1
12.80ｍ42尺
  7
ＭＳ ゴシック
 72
     1
 11
-19.09348060839994
 21
113.0077463420581
 31
0.0
100
AcDbText
 73
     2
  0
TEXT
  5
342
330
1F
100
AcDbEntity
  8
枠
  6
Continuous
 62
     7
370
    13
100
AcDbText
 10
-16.50588794943019
 20
110.2993851656948
 30
0.0
 40
0.3831417624521087
  1
10ｍ
  7
ＭＳ ゴシック
 72
     1
 11
-16.00761680656387
 21
110.4909560469208
 31
0.0
100
AcDbText
 73
     2
  0
LINE
  5
343
330
1F
100
AcDbEntity
  8
枠
  6
Continuous
 62
     7
370
    13
100
AcDbLine
 10
-16.76406382430121
 20
105.0649359794484
 30
0.0
 11
-16.0140638243012
 21
105.0649359794484
 31
0.0
  0
TEXT
  5
344
330
1F
100
AcDbEntity
  8
枠
  6
Continuous
 62
     7
370
    13
100
AcDbText
 10
-16.50632016371361
 20
105.1734091556517
 30
0.0
 40
0.3831417624521087
  1
5ｍ
  7
ＭＳ ゴシック
 72
     1
 11
-16.13261680656387
 21
105.3649800368778
 31
0.0
100
AcDbText
 73
     2
  0
TEXT
  5
345
330
1F
100
AcDbEntity
  8
枠
  6
Continuous
 62
     7
370
    13
100
AcDbText
 10
-19.77795510841599
 20
108.0025574359895
 30
0.0
 40
0.1915708812260526
  1
ギャラリー下端
  7
ＭＳ ゴシック
 72
     1
 11
-18.90598060839994
 21
108.0983428766025
 31
0.0
100
AcDbText
 73
     2
  0
TEXT
  5
346
330
1F
100
AcDbEntity
  8
枠
  6
Continuous
 62
     7
370
    13
100
AcDbText
 10
-19.77881953698283
 20
107.5826723352389
 30
0.0
 40
0.1915708812260526
  1
7.27ｍ24尺
  7
ＭＳ ゴシック
 72
     1
 11
-19.15598060839994
 21
107.6784577758519
 31
0.0
100
AcDbText
 73
     2
  0
TEXT
  5
347
330
1F
100
AcDbEntity
  8
枠
  6
Continuous
 62
     7
370
    13
100
AcDbText
 10
-19.77838732269941
 20
107.1688092303364
 30
0.0
 40
0.1915708812260526
  1
プロセニアム
  7
ＭＳ ゴシック
 72
     1
 11
-19.03098060839994
 21
107.2645946709494
 31
0.0
100
AcDbText
 73
     2
  0
TEXT
  5
348
330
1F
100
AcDbEntity
  8
枠
  6
Continuous
 62
     7
370
    13
100
AcDbText
 10
-19.77838732269941
 20
106.7688092303364
 30
0.0
 40
0.1915708812260526
  1
6.74ｍ22.2尺
  7
ＭＳ ゴシック
 72
     1
 11
-19.03098060839994
 21
106.8645946709494
 31
0.0
100
AcDbText
 73
     2
  0
TEXT
  5
349
330
1F
100
AcDbEntity
  8
枠
  6
Continuous
 62
     7
370
    13
100
AcDbText
 10
-19.77795510841599
 20
106.3406990688929
 30
0.0
 40
0.1915708812260526
  1
側反収納時下端
  7
ＭＳ ゴシック
 72
     1
 11
-18.90598060839994
 21
106.4364845095059
 31
0.0
100
AcDbText
 73
     2
  0
TEXT
  5
34A
330
1F
100
AcDbEntity
  8
枠
  6
Continuous
 62
     7
370
    13
100
AcDbText
 10
-19.7781712155577
 20
105.9406990688929
 30
0.0
 40
0.1915708812260526
  1
5.80ｍ19.14尺
  7
ＭＳ ゴシック
 72
     1
 11
-18.96848060839994
 21
106.0364845095059
 31
0.0
100
AcDbText
 73
     2
  0
TEXT
  5
34B
330
1F
100
AcDbEntity
  8
枠
  6
Continuous
 62
     7
370
    13
100
AcDbText
 10
-19.77968396554968
 20
105.5075801766342
 30
0.0
 40
0.1915708812260526
  1
暗転幕
  7
ＭＳ ゴシック
 72
     1
 11
-19.40598060839994
 21
105.6033656172472
 31
0.0
100
AcDbText
 73
     2
  0
TEXT
  5
34C
330
1F
100
AcDbEntity
  8
枠
  6
Continuous
 62
     7
370
    13
100
AcDbText
 10
-19.77838732269941
 20
105.1075801766342
 30
0.0
 40
0.1915708812260526
  1
5.60ｍ18.5尺
  7
ＭＳ ゴシック
 72
     1
 11
-19.03098060839994
 21
105.2033656172472
 31
0.0
100
AcDbText
 73
     2
  0
TEXT
  5
34D
330
1F
100
AcDbEntity
  8
枠
  6
Continuous
 62
     7
370
    13
100
AcDbText
 10
-19.77925175126625
 20
103.8495789716796
 30
0.0
 40
0.1915708812260526
  1
客席後床
  7
ＭＳ ゴシック
 72
     1
 11
-19.28098060839994
 21
103.9453644122926
 31
0.0
100
AcDbText
 73
     2
  0
TEXT
  5
34E
330
1F
100
AcDbEntity
  8
枠
  6
Continuous
 62
     7
370
    13
100
AcDbText
 10
-19.77968396554968
 20
103.4495789716796
 30
0.0
 40
0.1915708812260526
  1
3.60ｍ
  7
ＭＳ ゴシック
 72
     1
 11
-19.40598060839994
 21
103.5453644122926
 31
0.0
100
AcDbText
 73
     2
  0
TEXT
  5
34F
330
1F
100
AcDbEntity
  8
枠
  6
Continuous
 62
     7
370
    13
100
AcDbText
 10
16.10690173248754
 20
118.849382696341
 30
0.0
 40
0.2681992337164765
  1
1緞帳
  7
ＭＳ ゴシック
 72
     1
 11
16.54288898249556
 21
118.9834823131992
 31
0.0
100
AcDbText
 73
     2
  0
TEXT
  5
350
330
1F
100
AcDbEntity
  8
枠
  6
Continuous
 62
     7
370
    13
100
AcDbText
 10
16.10690173248754
 20
118.349382696341
 30
0.0
 40
0.2681992337164765
  1
2緞帳
  7
ＭＳ ゴシック
 72
     1
 11
16.54288898249556
 21
118.4834823131992
 31
0.0
100
AcDbText
 73
     2
  0
TEXT
  5
351
330
1F
100
AcDbEntity
  8
枠
  6
Continuous
 62
     7
370
    13
100
AcDbText
 10
15.84530938248272
 20
117.849382696341
 30
0.0
 40
0.2681992337164765
  1
絞り緞帳
  7
ＭＳ ゴシック
 72
     1
 11
16.54288898249556
 21
117.9834823131992
 31
0.0
100
AcDbText
 73
     2
  0
TEXT
  5
352
330
1F
100
AcDbEntity
  8
枠
  6
Continuous
 62
     7
370
    13
100
AcDbText
 10
16.01970428248593
 20
117.349382696341
 30
0.0
 40
0.2681992337164765
  1
暗転幕
  7
ＭＳ ゴシック
 72
     1
 11
16.54288898249556
 21
117.4834823131992
 31
0.0
100
AcDbText
 73
     2
  0
TEXT
  5
353
330
1F
100
AcDbEntity
  8
枠
  6
Continuous
 62
     7
370
    13
100
AcDbText
 10
16.10690173248754
 20
116.849382696341
 30
0.0
 40
0.2681992337164765
  1
袖幕1
  7
ＭＳ ゴシック
 72
     1
 11
16.54288898249556
 21
116.9834823131992
 31
0.0
100
AcDbText
 73
     2
  0
TEXT
  5
354
330
1F
100
AcDbEntity
  8
枠
  6
Continuous
 62
     7
370
    13
100
AcDbText
 10
15.93250683248432
 20
116.349382696341
 30
0.0
 40
0.2681992337164765
  1
1BL&1SL
  7
ＭＳ ゴシック
 72
     1
 11
16.54288898249556
 21
116.4834823131992
 31
0.0
100
AcDbText
 73
     2
  0
TEXT
  5
355
330
1F
100
AcDbEntity
  8
枠
  6
Continuous
 62
     7
370
    13
100
AcDbText
 10
15.93250683248432
 20
115.849382696341
 30
0.0
 40
0.2681992337164765
  1
バトン1
  7
ＭＳ ゴシック
 72
     1
 11
16.54288898249556
 21
115.9834823131992
 31
0.0
100
AcDbText
 73
     2
  0
TEXT
  5
356
330
1F
100
AcDbEntity
  8
枠
  6
Continuous
 62
     7
370
    13
100
AcDbText
 10
16.10690173248754
 20
115.349382696341
 30
0.0
 40
0.2681992337164765
  1
文字1
  7
ＭＳ ゴシック
 72
     1
 11
16.54288898249556
 21
115.4834823131992
 31
0.0
100
AcDbText
 73
     2
  0
TEXT
  5
357
330
1F
100
AcDbEntity
  8
枠
  6
Continuous
 62
     7
370
    13
100
AcDbText
 10
16.10690173248754
 20
114.849382696341
 30
0.0
 40
0.2681992337164765
  1
引割1
  7
ＭＳ ゴシック
 72
     1
 11
16.54288898249556
 21
114.9834823131992
 31
0.0
100
AcDbText
 73
     2
  0
TEXT
  5
358
330
1F
100
AcDbEntity
  8
枠
  6
Continuous
 62
     7
370
    13
100
AcDbText
 10
15.5837170324779
 20
114.349382696341
 30
0.0
 40
0.2681992337164765
  1
天井反射板1
  7
ＭＳ ゴシック
 72
     1
 11
16.54288898249556
 21
114.4834823131992
 31
0.0
100
AcDbText
 73
     2
  0
TEXT
  5
359
330
1F
100
AcDbEntity
  8
枠
  6
Continuous
 62
     7
370
    13
100
AcDbText
 10
15.5837170324779
 20
113.849382696341
 30
0.0
 40
0.2681992337164765
  1
文字2&袖幕2
  7
ＭＳ ゴシック
 72
     1
 11
16.54288898249556
 21
113.9834823131992
 31
0.0
100
AcDbText
 73
     2
  0
TEXT
  5
35A
330
1F
100
AcDbEntity
  8
枠
  6
Continuous
 62
     7
370
    13
100
AcDbText
 10
16.28129663249075
 20
113.349382696341
 30
0.0
 40
0.2681992337164765
  1
2SL
  7
ＭＳ ゴシック
 72
     1
 11
16.54288898249556
 21
113.4834823131992
 31
0.0
100
AcDbText
 73
     2
  0
TEXT
  5
35B
330
1F
100
AcDbEntity
  8
枠
  6
Continuous
 62
     7
370
    13
100
AcDbText
 10
15.93250683248432
 20
112.849382696341
 30
0.0
 40
0.2681992337164765
  1
バトン2
  7
ＭＳ ゴシック
 72
     1
 11
16.54288898249556
 21
112.9834823131992
 31
0.0
100
AcDbText
 73
     2
  0
TEXT
  5
35C
330
1F
100
AcDbEntity
  8
枠
  6
Continuous
 62
     7
370
    13
100
AcDbText
 10
15.93250683248432
 20
112.349382696341
 30
0.0
 40
0.2681992337164765
  1
バトン3
  7
ＭＳ ゴシック
 72
     1
 11
16.54288898249556
 21
112.4834823131992
 31
0.0
100
AcDbText
 73
     2
  0
TEXT
  5
35D
330
1F
100
AcDbEntity
  8
枠
  6
Continuous
 62
     7
370
    13
100
AcDbText
 10
15.67091448247951
 20
111.849382696341
 30
0.0
 40
0.2681992337164765
  1
スクリーン
  7
ＭＳ ゴシック
 72
     1
 11
16.54288898249556
 21
111.9834823131992
 31
0.0
100
AcDbText
 73
     2
  0
TEXT
  5
35E
330
1F
100
AcDbEntity
  8
枠
  6
Continuous
 62
     7
370
    13
100
AcDbText
 10
15.5837170324779
 20
111.349382696341
 30
0.0
 40
0.2681992337164765
  1
文字3&引割2
  7
ＭＳ ゴシック
 72
     1
 11
16.54288898249556
 21
111.4834823131992
 31
0.0
100
AcDbText
 73
     2
  0
TEXT
  5
35F
330
1F
100
AcDbEntity
  8
枠
  6
Continuous
 62
     7
370
    13
100
AcDbText
 10
16.28129663249075
 20
110.849382696341
 30
0.0
 40
0.2681992337164765
  1
2BL
  7
ＭＳ ゴシック
 72
     1
 11
16.54288898249556
 21
110.9834823131992
 31
0.0
100
AcDbText
 73
     2
  0
TEXT
  5
360
330
1F
100
AcDbEntity
  8
枠
  6
Continuous
 62
     7
370
    13
100
AcDbText
 10
16.28129663249075
 20
110.349382696341
 30
0.0
 40
0.2681992337164765
  1
3SL
  7
ＭＳ ゴシック
 72
     1
 11
16.54288898249556
 21
110.4834823131992
 31
0.0
100
AcDbText
 73
     2
  0
TEXT
  5
361
330
1F
100
AcDbEntity
  8
枠
  6
Continuous
 62
     7
370
    13
100
AcDbText
 10
15.93250683248432
 20
109.849382696341
 30
0.0
 40
0.2681992337164765
  1
バトン4
  7
ＭＳ ゴシック
 72
     1
 11
16.54288898249556
 21
109.9834823131992
 31
0.0
100
AcDbText
 73
     2
  0
TEXT
  5
362
330
1F
100
AcDbEntity
  8
枠
  6
Continuous
 62
     7
370
    13
100
AcDbText
 10
15.5837170324779
 20
109.349382696341
 30
0.0
 40
0.2681992337164765
  1
天井反射板2
  7
ＭＳ ゴシック
 72
     1
 11
16.54288898249556
 21
109.4834823131992
 31
0.0
100
AcDbText
 73
     2
  0
TEXT
  5
363
330
1F
100
AcDbEntity
  8
枠
  6
Continuous
 62
     7
370
    13
100
AcDbText
 10
15.93250683248432
 20
108.849382696341
 30
0.0
 40
0.2681992337164765
  1
バトン5
  7
ＭＳ ゴシック
 72
     1
 11
16.54288898249556
 21
108.9834823131992
 31
0.0
100
AcDbText
 73
     2
  0
TEXT
  5
364
330
1F
100
AcDbEntity
  8
枠
  6
Continuous
 62
     7
370
    13
100
AcDbText
 10
15.23492723247148
 20
108.349382696341
 30
0.0
 40
0.2681992337164765
  1
UHL&文字4&袖幕3
  7
ＭＳ ゴシック
 72
     1
 11
16.54288898249556
 21
108.4834823131992
 31
0.0
100
AcDbText
 73
     2
  0
TEXT
  5
365
330
1F
100
AcDbEntity
  8
枠
  6
Continuous
 62
     7
370
    13
100
AcDbText
 10
15.93250683248432
 20
107.849382696341
 30
0.0
 40
0.2681992337164765
  1
バトン6
  7
ＭＳ ゴシック
 72
     1
 11
16.54288898249556
 21
107.9834823131992
 31
0.0
100
AcDbText
 73
     2
  0
TEXT
  5
366
330
1F
100
AcDbEntity
  8
枠
  6
Continuous
 62
     7
370
    13
100
AcDbText
 10
15.93250683248432
 20
107.349382696341
 30
0.0
 40
0.2681992337164765
  1
バトン7
  7
ＭＳ ゴシック
 72
     1
 11
16.54288898249556
 21
107.4834823131992
 31
0.0
100
AcDbText
 73
     2
  0
TEXT
  5
367
330
1F
100
AcDbEntity
  8
枠
  6
Continuous
 62
     7
370
    13
100
AcDbText
 10
15.93250683248432
 20
106.849382696341
 30
0.0
 40
0.2681992337164765
  1
バトン8
  7
ＭＳ ゴシック
 72
     1
 11
16.54288898249556
 21
106.9834823131992
 31
0.0
100
AcDbText
 73
     2
  0
TEXT
  5
368
330
1F
100
AcDbEntity
  8
枠
  6
Continuous
 62
     7
370
    13
100
AcDbText
 10
16.01970428248593
 20
106.349382696341
 30
0.0
 40
0.2681992337164765
  1
大黒幕
  7
ＭＳ ゴシック
 72
     1
 11
16.54288898249556
 21
106.4834823131992
 31
0.0
100
AcDbText
 73
     2
  0
TEXT
  5
369
330
1F
100
AcDbEntity
  8
枠
  6
Continuous
 62
     7
370
    13
100
AcDbText
 10
15.4965195824763
 20
105.849382696341
 30
0.0
 40
0.2681992337164765
  1
ホリゾント幕
  7
ＭＳ ゴシック
 72
     1
 11
16.54288898249556
 21
105.9834823131992
 31
0.0
100
AcDbText
 73
     2
  0
LINE
  5
36A
330
1F
100
AcDbEntity
  8
枠
  6
Continuous
 62
     7
370
    13
100
AcDbLine
 10
2.407906332559932
 20
107.0565506617083
 30
0.0
 11
2.976296159149104
 21
107.0565506617083
 31
0.0
  0
LINE
  5
36B
330
1F
100
AcDbEntity
  8
枠
  6
Continuous
 62
     7
370
    13
100
AcDbLine
 10
6.461885494105577
 20
99.01483923066431
 30
0.0
 11
6.211885512826235
 21
99.01493597944844
 31
0.0
  0
LINE
  5
36C
330
1F
100
AcDbEntity
  8
枠
  6
Continuous
 62
     7
370
    13
100
AcDbLine
 10
6.533824553935446
 20
99.61482370872108
 30
0.0
 11
6.163831795696709
 21
99.61496689412978
 31
0.0
  0
LINE
  5
36D
330
1F
100
AcDbEntity
  8
枠
  6
Continuous
 62
     7
370
    13
100
AcDbLine
 10
6.53383177098544
 20
99.61483918573474
 30
0.0
 11
6.461885494105577
 21
99.01483923066431
 31
0.0
  0
LINE
  5
36E
330
1F
100
AcDbEntity
  8
枠
  6
Continuous
 62
     7
370
    13
100
AcDbLine
 10
6.493831770985441
 20
99.61483918573474
 30
0.0
 11
6.53383177098544
 21
99.61483918573474
 31
0.0
  0
LINE
  5
36F
330
1F
100
AcDbEntity
  8
枠
  6
Continuous
 62
     7
370
    13
100
AcDbLine
 10
6.53383177098544
 20
99.61483918573474
 30
0.0
 11
6.660617249507666
 21
99.88673152184572
 31
0.0
  0
LINE
  5
370
330
1F
100
AcDbEntity
  8
枠
  6
Continuous
 62
     7
370
    13
100
AcDbLine
 10
6.185616630365093
 20
99.34294684962374
 30
0.0
 11
5.957046292463215
 21
99.34294684962374
 31
0.0
  0
LINE
  5
371
330
1F
100
AcDbEntity
  8
枠
  6
Continuous
 62
     7
370
    13
100
AcDbLine
 10
7.423831770985444
 20
99.61483918573474
 30
0.0
 11
7.550617249507667
 21
99.88673152184572
 31
0.0
  0
LINE
  5
372
330
1F
100
AcDbEntity
  8
枠
  6
Continuous
 62
     7
370
    13
100
AcDbLine
 10
8.573831770985436
 20
99.61483918573474
 30
0.0
 11
8.700617249507662
 21
99.88673152184572
 31
0.0
  0
LINE
  5
373
330
1F
100
AcDbEntity
  8
枠
  6
Continuous
 62
     7
370
    13
100
AcDbLine
 10
9.473831770985438
 20
99.61483918573474
 30
0.0
 11
9.600617249507664
 21
99.88673152184572
 31
0.0
  0
POLYLINE
  5
374
330
1F
100
AcDbEntity
  8
縦断図
  6
dashed
 62
     1
370
    13
100
AcDb3dPolyline
 66
     1
 10
0.0
 20
0.0
 30
0.0
 70
     8
  0
VERTEX
  5
375
330
374
100
AcDbEntity
  8
縦断図
  6
dashed
 62
     1
100
AcDbVertex
100
AcDb3dPolylineVertex
 10
-6.069736906263643
 20
104.4257629555488
 30
0.0
 70
    32
  0
VERTEX
  5
376
330
374
100
AcDbEntity
  8
縦断図
  6
dashed
 62
     1
100
AcDbVertex
100
AcDb3dPolylineVertex
 10
-5.184709342337532
 20
104.4661635878582
 30
0.0
 70
    32
  0
VERTEX
  5
377
330
374
100
AcDbEntity
  8
縦断図
  6
dashed
 62
     1
100
AcDbVertex
100
AcDb3dPolylineVertex
 10
-4.357353980464699
 20
104.9906033891513
 30
0.0
 70
    32
  0
VERTEX
  5
378
330
374
100
AcDbEntity
  8
縦断図
  6
dashed
 62
     1
100
AcDbVertex
100
AcDb3dPolylineVertex
 10
-3.664364975244855
 20
104.9741340648051
 30
0.0
 70
    32
  0
VERTEX
  5
379
330
374
100
AcDbEntity
  8
縦断図
  6
dashed
 62
     1
100
AcDbVertex
100
AcDb3dPolylineVertex
 10
-2.237876334261625
 20
105.6951681535594
 30
0.0
 70
    32
  0
SEQEND
  5
37A
330
374
100
AcDbEntity
  8
縦断図
  6
dashed
 62
     1
370
    13
  0
POLYLINE
  5
37B
330
1F
100
AcDbEntity
  8
縦断図
  6
dashed
 62
     1
370
    13
100
AcDb3dPolyline
 66
     1
 10
0.0
 20
0.0
 30
0.0
 70
     8
  0
VERTEX
  5
37C
330
37B
100
AcDbEntity
  8
縦断図
  6
dashed
 62
     1
100
AcDbVertex
100
AcDb3dPolylineVertex
 10
-2.185875668945663
 20
105.6961329367979
 30
0.0
 70
    32
  0
VERTEX
  5
37D
330
37B
100
AcDbEntity
  8
縦断図
  6
dashed
 62
     1
100
AcDbVertex
100
AcDb3dPolylineVertex
 10
-1.281795961819505
 20
105.81352068387
 30
0.0
 70
    32
  0
VERTEX
  5
37E
330
37B
100
AcDbEntity
  8
縦断図
  6
dashed
 62
     1
100
AcDbVertex
100
AcDb3dPolylineVertex
 10
-0.0973397729071337
 20
106.486718675955
 30
0.0
 70
    32
  0
VERTEX
  5
37F
330
37B
100
AcDbEntity
  8
縦断図
  6
dashed
 62
     1
100
AcDbVertex
100
AcDb3dPolylineVertex
 10
0.5016478993875033
 20
106.4683130127218
 30
0.0
 70
    32
  0
VERTEX
  5
380
330
37B
100
AcDbEntity
  8
縦断図
  6
dashed
 62
     1
100
AcDbVertex
100
AcDb3dPolylineVertex
 10
1.796099322386791
 20
107.1344365099016
 30
0.0
 70
    32
  0
SEQEND
  5
381
330
37B
100
AcDbEntity
  8
縦断図
  6
dashed
 62
     1
370
    13
  0
LINE
  5
382
330
1F
100
AcDbEntity
  8
縦断図
  6
dashed
 62
     1
370
    13
100
AcDbLine
 10
-6.069736906263643
 20
104.4257629555488
 30
0.0
 11
-6.069736906263643
 21
104.6457629555488
 31
0.0
  0
LINE
  5
383
330
1F
100
AcDbEntity
  8
縦断図
  6
dashed
 62
     1
370
    13
100
AcDbLine
 10
-2.237876334261625
 20
105.6951681535594
 30
0.0
 11
-2.237876334261625
 21
105.9151681535594
 31
0.0
  0
LINE
  5
384
330
1F
100
AcDbEntity
  8
縦断図
  6
dashed
 62
     1
370
    13
100
AcDbLine
 10
-2.185875668945663
 20
105.6961329367979
 30
0.0
 11
-2.185875668945663
 21
105.9161329367979
 31
0.0
  0
LINE
  5
385
330
1F
100
AcDbEntity
  8
縦断図
  6
dashed
 62
     1
370
    13
100
AcDbLine
 10
1.796099322386791
 20
107.1344365099016
 30
0.0
 11
1.796099322386791
 21
107.4344365099016
 31
0.0
  0
LINE
  5
386
330
1F
100
AcDbEntity
  8
縦断図
  6
dashed
 62
     1
370
    13
100
AcDbLine
 10
1.796099322386791
 20
107.4344365099016
 30
0.0
 11
-2.185875668945663
 21
105.9161329367979
 31
0.0
  0
LINE
  5
387
330
1F
100
AcDbEntity
  8
縦断図
  6
dashed
 62
     1
370
    13
100
AcDbLine
 10
-2.237876334261625
 20
105.9151681535594
 30
0.0
 11
-6.069736906263643
 21
104.6457629555488
 31
0.0
  0
DIMENSION
  5
388
330
1F
100
AcDbEntity
  8
縦断図
  6
Continuous
 62
     1
370
    13
100
AcDbDimension
280
     0
  2
*D11
 10
-6.069736906263643
 20
100.0454559331299
 30
0.0
 11
-6.244736906263642
 21
102.2356094443393
 31
0.0
 70
   160
  1
4380
 71
     5
 42
4.380307022418933
 73
     0
 74
     0
 75
     0
 53
90.0
  3
Standard
100
AcDbAlignedDimension
 13
-6.069836906263642
 23
104.4257629555488
 33
0.0
 14
-6.069836906263642
 24
100.0454559331299
 34
0.0
 50
270.0
100
AcDbRotatedDimension
1001
ACAD
1000
DSTYLE
1002
{
1070
    70
1070
     0
1070
    69
1070
     0
1070
   271
1070
     2
1070
   178
1070
     1
1070
   177
1070
     1
1070
   176
1070
     1
1070
   289
1070
     3
1070
    77
1070
     1
1070
   174
1070
     1
1070
   172
1070
     1
1070
    73
1070
     0
1070
    74
1070
     0
1070
   173
1070
     1
1070
   279
1070
     2
1070
    76
1070
     1
1070
    75
1070
     1
1070
    44
1040
0.0
1070
    42
1040
0.0
1070
   147
1040
0.0
1070
   140
1040
0.1915708812260526
1070
    41
1040
0.0500000000000007
1070
   340
1005
73
1070
   344
1005
212
1070
   343
1005
212
1002
}
  0
DIMENSION
  5
393
330
1F
100
AcDbEntity
  8
縦断図
  6
Continuous
 62
     1
370
    13
100
AcDbDimension
280
     0
  2
*D12
 10
-2.185875668945663
 20
100.0515163721327
 30
0.0
 11
-2.360875668945663
 21
102.8738246544653
 31
0.0
 70
   160
  1
5645
 71
     5
 42
5.644616564665199
 73
     0
 74
     0
 75
     0
 53
90.0
  3
Standard
100
AcDbAlignedDimension
 13
-2.185975668945662
 23
105.6961329367979
 33
0.0
 14
-2.185975668945662
 24
100.0515163721327
 34
0.0
 50
270.0
100
AcDbRotatedDimension
1001
ACAD
1000
DSTYLE
1002
{
1070
    70
1070
     0
1070
    69
1070
     0
1070
   271
1070
     2
1070
   178
1070
     1
1070
   177
1070
     1
1070
   176
1070
     1
1070
   289
1070
     3
1070
    77
1070
     1
1070
   174
1070
     1
1070
   172
1070
     1
1070
    73
1070
     0
1070
    74
1070
     0
1070
   173
1070
     1
1070
   279
1070
     2
1070
    76
1070
     1
1070
    75
1070
     1
1070
    44
1040
0.0
1070
    42
1040
0.0
1070
   147
1040
0.0
1070
   140
1040
0.1915708812260526
1070
    41
1040
0.0500000000000007
1070
   340
1005
73
1070
   344
1005
212
1070
   343
1005
212
1002
}
  0
LINE
  5
39E
330
1F
100
AcDbEntity
  8
縦断図
  6
dashed
 62
     7
370
    13
100
AcDbLine
 10
6.502606831584327
 20
99.19294684962374
 30
0.0
 11
6.483242462484952
 21
99.19294684962374
 31
0.0
  0
LINE
  5
39F
330
1F
100
AcDbEntity
  8
縦断図
  6
Continuous
 62
     7
370
    13
100
AcDbLine
 10
5.957046292463215
 20
99.34294684962374
 30
0.0
 11
5.957046292463215
 21
99.19294684962374
 31
0.0
  0
LINE
  5
3A0
330
1F
100
AcDbEntity
  8
縦断図
  6
Continuous
 62
     7
370
    13
100
AcDbLine
 10
6.502606831584327
 20
99.19294684962374
 30
0.0
 11
6.79656341756316
 21
99.8233387825846
 31
0.0
  0
LINE
  5
3A1
330
1F
100
AcDbEntity
  8
縦断図
  6
Continuous
 62
     7
370
    13
100
AcDbLine
 10
6.660617249507666
 20
99.88673152184572
 30
0.0
 11
6.79656341756316
 21
99.8233387825846
 31
0.0
  0
LINE
  5
3A2
330
1F
100
AcDbEntity
  8
縦断図
  6
Continuous
 62
     7
370
    13
100
AcDbLine
 10
6.197629440693806
 20
99.19294684962374
 30
0.0
 11
5.957046292463215
 21
99.19294684962374
 31
0.0
  0
LINE
  5
3A3
330
1F
100
AcDbEntity
  8
縦断図
  6
Continuous
 62
     7
370
    13
100
AcDbLine
 10
7.053831795696709
 20
99.61496689412978
 30
0.0
 11
7.101885512826239
 21
99.01493597944844
 31
0.0
  0
LINE
  5
3A4
330
1F
100
AcDbEntity
  8
枠
  6
Continuous
 62
     7
370
    13
100
AcDbLine
 10
7.351885494105581
 20
99.01483923066431
 30
0.0
 11
7.101885512826239
 21
99.01493597944844
 31
0.0
  0
LINE
  5
3A5
330
1F
100
AcDbEntity
  8
枠
  6
Continuous
 62
     7
370
    13
100
AcDbLine
 10
7.423824553935447
 20
99.61482370872108
 30
0.0
 11
7.053831795696709
 21
99.61496689412978
 31
0.0
  0
LINE
  5
3A6
330
1F
100
AcDbEntity
  8
枠
  6
Continuous
 62
     7
370
    13
100
AcDbLine
 10
7.423831770985444
 20
99.61483918573474
 30
0.0
 11
7.351885494105581
 21
99.01483923066431
 31
0.0
  0
LINE
  5
3A7
330
1F
100
AcDbEntity
  8
枠
  6
Continuous
 62
     7
370
    13
100
AcDbLine
 10
7.383831770985445
 20
99.61483918573474
 30
0.0
 11
7.423831770985444
 21
99.61483918573474
 31
0.0
  0
LINE
  5
3A8
330
1F
100
AcDbEntity
  8
枠
  6
Continuous
 62
     7
370
    13
100
AcDbLine
 10
7.075616630365097
 20
99.34294684962374
 30
0.0
 11
6.847046292463219
 21
99.34294684962374
 31
0.0
  0
LINE
  5
3A9
330
1F
100
AcDbEntity
  8
縦断図
  6
dashed
 62
     7
370
    13
100
AcDbLine
 10
7.392606831584331
 20
99.19294684962374
 30
0.0
 11
7.373242462484956
 21
99.19294684962374
 31
0.0
  0
LINE
  5
3AA
330
1F
100
AcDbEntity
  8
縦断図
  6
Continuous
 62
     7
370
    13
100
AcDbLine
 10
6.847046292463219
 20
99.34294684962374
 30
0.0
 11
6.847046292463219
 21
99.19294684962374
 31
0.0
  0
LINE
  5
3AB
330
1F
100
AcDbEntity
  8
縦断図
  6
Continuous
 62
     7
370
    13
100
AcDbLine
 10
7.392606831584331
 20
99.19294684962374
 30
0.0
 11
7.686563417563164
 21
99.8233387825846
 31
0.0
  0
LINE
  5
3AC
330
1F
100
AcDbEntity
  8
縦断図
  6
Continuous
 62
     7
370
    13
100
AcDbLine
 10
7.550617249507667
 20
99.88673152184572
 30
0.0
 11
7.686563417563164
 21
99.8233387825846
 31
0.0
  0
LINE
  5
3AD
330
1F
100
AcDbEntity
  8
縦断図
  6
Continuous
 62
     7
370
    13
100
AcDbLine
 10
7.08762944069381
 20
99.19294684962374
 30
0.0
 11
6.847046292463219
 21
99.19294684962374
 31
0.0
  0
LINE
  5
3AE
330
1F
100
AcDbEntity
  8
縦断図
  6
Continuous
 62
     7
370
    13
100
AcDbLine
 10
8.203831795696704
 20
99.61496689412978
 30
0.0
 11
8.251885512826235
 21
99.01493597944844
 31
0.0
  0
LINE
  5
3AF
330
1F
100
AcDbEntity
  8
枠
  6
Continuous
 62
     7
370
    13
100
AcDbLine
 10
8.501885494105576
 20
99.01483923066431
 30
0.0
 11
8.251885512826235
 21
99.01493597944844
 31
0.0
  0
LINE
  5
3B0
330
1F
100
AcDbEntity
  8
枠
  6
Continuous
 62
     7
370
    13
100
AcDbLine
 10
8.573824553935442
 20
99.61482370872108
 30
0.0
 11
8.203831795696704
 21
99.61496689412978
 31
0.0
  0
LINE
  5
3B1
330
1F
100
AcDbEntity
  8
枠
  6
Continuous
 62
     7
370
    13
100
AcDbLine
 10
8.573831770985436
 20
99.61483918573474
 30
0.0
 11
8.501885494105576
 21
99.01483923066431
 31
0.0
  0
LINE
  5
3B2
330
1F
100
AcDbEntity
  8
枠
  6
Continuous
 62
     7
370
    13
100
AcDbLine
 10
8.53383177098544
 20
99.61483918573474
 30
0.0
 11
8.573831770985436
 21
99.61483918573474
 31
0.0
  0
LINE
  5
3B3
330
1F
100
AcDbEntity
  8
枠
  6
Continuous
 62
     7
370
    13
100
AcDbLine
 10
8.225616630365092
 20
99.34294684962374
 30
0.0
 11
7.99704629246321
 21
99.34294684962374
 31
0.0
  0
LINE
  5
3B4
330
1F
100
AcDbEntity
  8
縦断図
  6
dashed
 62
     7
370
    13
100
AcDbLine
 10
8.542606831584322
 20
99.19294684962374
 30
0.0
 11
8.523242462484951
 21
99.19294684962374
 31
0.0
  0
LINE
  5
3B5
330
1F
100
AcDbEntity
  8
縦断図
  6
Continuous
 62
     7
370
    13
100
AcDbLine
 10
7.99704629246321
 20
99.34294684962374
 30
0.0
 11
7.99704629246321
 21
99.19294684962374
 31
0.0
  0
LINE
  5
3B6
330
1F
100
AcDbEntity
  8
縦断図
  6
Continuous
 62
     7
370
    13
100
AcDbLine
 10
8.542606831584322
 20
99.19294684962374
 30
0.0
 11
8.836563417563156
 21
99.8233387825846
 31
0.0
  0
LINE
  5
3B7
330
1F
100
AcDbEntity
  8
縦断図
  6
Continuous
 62
     7
370
    13
100
AcDbLine
 10
8.700617249507662
 20
99.88673152184572
 30
0.0
 11
8.836563417563156
 21
99.8233387825846
 31
0.0
  0
LINE
  5
3B8
330
1F
100
AcDbEntity
  8
縦断図
  6
Continuous
 62
     7
370
    13
100
AcDbLine
 10
8.237629440693805
 20
99.19294684962374
 30
0.0
 11
7.99704629246321
 21
99.19294684962374
 31
0.0
  0
LINE
  5
3B9
330
1F
100
AcDbEntity
  8
縦断図
  6
Continuous
 62
     7
370
    13
100
AcDbLine
 10
9.103831795696706
 20
99.61496689412978
 30
0.0
 11
9.151885512826233
 21
99.01493597944844
 31
0.0
  0
LINE
  5
3BA
330
1F
100
AcDbEntity
  8
枠
  6
Continuous
 62
     7
370
    13
100
AcDbLine
 10
9.401885494105574
 20
99.01483923066431
 30
0.0
 11
9.151885512826233
 21
99.01493597944844
 31
0.0
  0
LINE
  5
3BB
330
1F
100
AcDbEntity
  8
枠
  6
Continuous
 62
     7
370
    13
100
AcDbLine
 10
9.473824553935444
 20
99.61482370872108
 30
0.0
 11
9.103831795696706
 21
99.61496689412978
 31
0.0
  0
LINE
  5
3BC
330
1F
100
AcDbEntity
  8
枠
  6
Continuous
 62
     7
370
    13
100
AcDbLine
 10
9.473831770985438
 20
99.61483918573474
 30
0.0
 11
9.401885494105574
 21
99.01483923066431
 31
0.0
  0
LINE
  5
3BD
330
1F
100
AcDbEntity
  8
枠
  6
Continuous
 62
     7
370
    13
100
AcDbLine
 10
9.433831770985439
 20
99.61483918573474
 30
0.0
 11
9.473831770985438
 21
99.61483918573474
 31
0.0
  0
LINE
  5
3BE
330
1F
100
AcDbEntity
  8
枠
  6
Continuous
 62
     7
370
    13
100
AcDbLine
 10
9.12561663036509
 20
99.34294684962374
 30
0.0
 11
8.897046292463212
 21
99.34294684962374
 31
0.0
  0
LINE
  5
3BF
330
1F
100
AcDbEntity
  8
縦断図
  6
dashed
 62
     7
370
    13
100
AcDbLine
 10
9.442606831584325
 20
99.19294684962374
 30
0.0
 11
9.42324246248495
 21
99.19294684962374
 31
0.0
  0
LINE
  5
3C0
330
1F
100
AcDbEntity
  8
縦断図
  6
Continuous
 62
     7
370
    13
100
AcDbLine
 10
8.897046292463212
 20
99.34294684962374
 30
0.0
 11
8.897046292463212
 21
99.19294684962374
 31
0.0
  0
LINE
  5
3C1
330
1F
100
AcDbEntity
  8
縦断図
  6
Continuous
 62
     7
370
    13
100
AcDbLine
 10
9.442606831584325
 20
99.19294684962374
 30
0.0
 11
9.736563417563158
 21
99.8233387825846
 31
0.0
  0
LINE
  5
3C2
330
1F
100
AcDbEntity
  8
縦断図
  6
Continuous
 62
     7
370
    13
100
AcDbLine
 10
9.600617249507664
 20
99.88673152184572
 30
0.0
 11
9.736563417563158
 21
99.8233387825846
 31
0.0
  0
LINE
  5
3C3
330
1F
100
AcDbEntity
  8
縦断図
  6
Continuous
 62
     7
370
    13
100
AcDbLine
 10
9.137629440693804
 20
99.19294684962374
 30
0.0
 11
8.897046292463212
 21
99.19294684962374
 31
0.0
  0
LINE
  5
3C4
330
1F
100
AcDbEntity
  8
枠
  6
Continuous
 62
     7
370
    13
100
AcDbLine
 10
-16.76406382430121
 20
106.4999359794484
 30
0.0
 11
-16.01406382430121
 21
106.4999359794484
 31
0.0
  0
TEXT
  5
3C5
330
1F
100
AcDbEntity
  8
枠
  6
Continuous
 62
     7
370
    13
100
AcDbText
 10
-15.95079689876858
 20
106.614445068225
 30
0.0
 40
0.1915708812260526
  1
プロセニアム両端
  7
ＭＳ ゴシック
 72
     1
 11
-14.95425461303595
 21
106.710230508838
 31
0.0
100
AcDbText
 73
     2
  0
TEXT
  5
3C6
330
1F
100
AcDbEntity
  8
枠
  6
Continuous
 62
     7
370
    13
100
AcDbText
 10
-15.95166132733542
 20
106.214445068225
 30
0.0
 40
0.1915708812260526
  1
6.43ｍ21.2尺
  7
ＭＳ ゴシック
 72
     1
 11
-15.20425461303595
 21
106.310230508838
 31
0.0
100
AcDbText
 73
     2
  0
LINE
  5
3C7
330
1F
100
AcDbEntity
  8
縦断図
  6
Continuous
 62
     7
370
    13
100
AcDbLine
 10
-16.76406382430121
 20
100.0649359794484
 30
0.0
 11
-16.76406382430121
 21
106.8049359794484
 31
0.0
  0
CIRCLE
  5
3C8
330
1F
100
AcDbEntity
  8
縦断図
  6
Continuous
 62
     7
370
    13
100
AcDbCircle
 10
-6.167703840850898
 20
113.085201267918
 30
0.0
 40
0.0399999999999991
  0
CIRCLE
  5
3C9
330
1F
100
AcDbEntity
  8
縦断図
  6
Continuous
 62
     7
370
    13
100
AcDbCircle
 10
-5.911703840850898
 20
113.3356063770344
 30
0.0
 40
0.0399999999999991
  0
LINE
  5
3CA
330
1F
100
AcDbEntity
  8
縦断図
  6
Continuous
 62
     7
370
    13
100
AcDbLine
 10
-5.954191028986108
 20
106.5456141734317
 30
0.0
 11
-5.854170345338806
 21
106.5456141734317
 31
0.0
  0
LINE
  5
3CB
330
1F
100
AcDbEntity
  8
縦断図
  6
Continuous
 62
     7
370
    13
100
AcDbLine
 10
-5.681668594812344
 20
113.0449275000453
 30
0.0
 11
-5.731668594812348
 21
113.0449275000453
 31
0.0
  0
LINE
  5
3CC
330
1F
100
AcDbEntity
  8
縦断図
  6
Continuous
 62
     7
370
    13
100
AcDbLine
 10
-5.536247358570872
 20
113.0562458015808
 30
0.0
 11
-5.486247358570871
 21
113.0562458015808
 31
0.0
  0
LINE
  5
3CD
330
1F
100
AcDbEntity
  8
縦断図
  6
Continuous
 62
     7
370
    13
100
AcDbLine
 10
-5.327836098227202
 20
113.0065467453504
 30
0.0
 11
-5.277836098227203
 21
113.0065467453504
 31
0.0
  0
LINE
  5
3CE
330
1F
100
AcDbEntity
  8
縦断図
  6
Continuous
 62
     7
370
    13
100
AcDbLine
 10
-4.973202232289241
 20
109.147077188462
 30
0.0
 11
-4.973713126598224
 21
109.247077064579
 31
0.0
  0
CIRCLE
  5
3CF
330
1F
100
AcDbEntity
  8
縦断図
  6
Continuous
 62
     7
370
    13
100
AcDbCircle
 10
-4.973713126598224
 20
109.287077064579
 30
0.0
 40
0.0399999999999991
  0
LINE
  5
3D0
330
1F
100
AcDbEntity
  8
縦断図
  6
Continuous
 62
     7
370
    13
100
AcDbLine
 10
-4.902661349098221
 20
102.6470725251339
 30
0.0
 11
-4.925501112576093
 21
103.0610810539964
 31
0.0
  0
LINE
  5
3D1
330
1F
100
AcDbEntity
  8
縦断図
  6
Continuous
 62
     7
370
    13
100
AcDbLine
 10
-4.925501112576093
 20
103.0610810539964
 30
0.0
 11
-4.971402642985714
 21
103.1421991343346
 31
0.0
  0
LINE
  5
3D2
330
1F
100
AcDbEntity
  8
縦断図
  6
Continuous
 62
     7
370
    13
100
AcDbLine
 10
-4.977703840850895
 20
110.4272592535297
 30
0.0
 11
-4.811021156845271
 21
110.4272592535297
 31
0.0
  0
LINE
  5
3D3
330
1F
100
AcDbEntity
  8
縦断図
  6
Continuous
 62
     7
370
    13
100
AcDbLine
 10
-4.971402642985714
 20
103.1421991343346
 30
0.0
 11
-5.013660872179727
 21
102.6470725251339
 31
0.0
  0
LINE
  5
3D4
330
1F
100
AcDbEntity
  8
縦断図
  6
Continuous
 62
     7
370
    13
100
AcDbLine
 10
-4.728452836954817
 20
113.0474906173413
 30
0.0
 11
-4.678452836954815
 21
113.0474906173413
 31
0.0
  0
LINE
  5
3D5
330
1F
100
AcDbEntity
  8
縦断図
  6
Continuous
 62
     7
370
    13
100
AcDbLine
 10
-3.65350427602359
 20
112.979110288127
 30
0.0
 11
-3.70350427602359
 21
112.979110288127
 31
0.0
  0
CIRCLE
  5
3D6
330
1F
100
AcDbEntity
  8
縦断図
  6
Continuous
 62
     7
370
    13
100
AcDbCircle
 10
-3.387097184394637
 20
108.0895730058778
 30
0.0
 40
0.0399999999999991
  0
CIRCLE
  5
3D7
330
1F
100
AcDbEntity
  8
縦断図
  6
Continuous
 62
     7
370
    13
100
AcDbCircle
 10
-2.950802611047212
 20
108.2102599081552
 30
0.0
 40
0.0399999999999991
  0
LINE
  5
3D8
330
1F
100
AcDbEntity
  8
縦断図
  6
Continuous
 62
     7
370
    13
100
AcDbLine
 10
-2.979444564160932
 20
108.1519682892626
 30
0.0
 11
-2.950802611047212
 21
108.1702599081552
 31
0.0
  0
LINE
  5
3D9
330
1F
100
AcDbEntity
  8
縦断図
  6
Continuous
 62
     7
370
    13
100
AcDbLine
 10
-2.879795515924389
 20
108.145428677631
 30
0.0
 11
-2.950802611047212
 21
108.1702599081552
 31
0.0
  0
LINE
  5
3DA
330
1F
100
AcDbEntity
  8
縦断図
  6
Continuous
 62
     7
370
    13
100
AcDbLine
 10
-2.779968628804941
 20
113.1006169746913
 30
0.0
 11
-2.689968628804937
 21
113.1006169746913
 31
0.0
  0
LINE
  5
3DB
330
1F
100
AcDbEntity
  8
縦断図
  6
Continuous
 62
     7
370
    13
100
AcDbLine
 10
-2.689968628804937
 20
113.0506169746913
 30
0.0
 11
-2.57292654744715
 21
113.0506169746913
 31
0.0
  0
CIRCLE
  5
3DC
330
1F
100
AcDbEntity
  8
縦断図
  6
Continuous
 62
     7
370
    13
100
AcDbCircle
 10
-2.214052121469532
 20
106.7714178133456
 30
0.0
 40
0.0399999999999991
  0
LINE
  5
3DD
330
1F
100
AcDbEntity
  8
縦断図
  6
Continuous
 62
     7
370
    13
100
AcDbLine
 10
-2.214052121469532
 20
106.7314178133456
 30
0.0
 11
-1.86405212146953
 21
106.7314178133456
 31
0.0
  0
LINE
  5
3DE
330
1F
100
AcDbEntity
  8
縦断図
  6
Continuous
 62
     7
370
    13
100
AcDbLine
 10
-1.86405212146953
 20
106.7314178133456
 30
0.0
 11
-1.863376143903274
 21
106.301969265502
 31
0.0
  0
LINE
  5
3DF
330
1F
100
AcDbEntity
  8
縦断図
  6
Continuous
 62
     7
370
    13
100
AcDbLine
 10
-1.792587564402979
 20
112.8271306787554
 30
0.0
 11
-1.742587564402982
 21
112.8271306787554
 31
0.0
  0
LINE
  5
3E0
330
1F
100
AcDbEntity
  8
縦断図
  6
Continuous
 62
     7
370
    13
100
AcDbLine
 10
-1.58915358642713
 20
112.825510963043
 30
0.0
 11
-1.53915358642713
 21
112.825510963043
 31
0.0
  0
CIRCLE
  5
3E1
330
1F
100
AcDbEntity
  8
縦断図
  6
Continuous
 62
     7
370
    13
100
AcDbCircle
 10
-1.212816149694174
 20
108.2629957137494
 30
0.0
 40
0.0399999999999991
  0
LINE
  5
3E2
330
1F
100
AcDbEntity
  8
縦断図
  6
Continuous
 62
     7
370
    13
100
AcDbLine
 10
-0.8544414921809427
 20
112.2536512191002
 30
0.0
 11
-0.7465934513334318
 21
112.2536512191002
 31
0.0
  0
CIRCLE
  5
3E3
330
1F
100
AcDbEntity
  8
縦断図
  6
Continuous
 62
     7
370
    13
100
AcDbCircle
 10
0.274296159149106
 20
112.8955690829365
 30
0.0
 40
0.0399999999999991
  0
LINE
  5
3E4
330
1F
100
AcDbEntity
  8
縦断図
  6
Continuous
 62
     7
370
    13
100
AcDbLine
 10
0.274296159149106
 20
112.8555690829365
 30
0.0
 11
0.274296159149106
 21
107.1232659821716
 31
0.0
  0
CIRCLE
  5
3E5
330
1F
100
AcDbEntity
  8
縦断図
  6
Continuous
 62
     7
370
    13
100
AcDbCircle
 10
0.4732961591491041
 20
111.4960998193371
 30
0.0
 40
0.0399999999999991
  0
LINE
  5
3E6
330
1F
100
AcDbEntity
  8
縦断図
  6
Continuous
 62
     7
370
    13
100
AcDbLine
 10
0.4732961591491041
 20
111.4560998193371
 30
0.0
 11
0.4732961591491041
 21
110.9236229195305
 31
0.0
  0
LINE
  5
3E7
330
1F
100
AcDbEntity
  8
縦断図
  6
Continuous
 62
     7
370
    13
100
AcDbLine
 10
0.4732961591491041
 20
111.5360998193371
 30
0.0
 11
0.4732961591491041
 21
114.1949359794484
 31
0.0
  0
LINE
  5
3E8
330
1F
100
AcDbEntity
  8
縦断図
  6
Continuous
 62
     7
370
    13
100
AcDbLine
 10
0.668494512590101
 20
112.8866452080991
 30
0.0
 11
0.7184945125901017
 21
112.8866452080991
 31
0.0
  0
CIRCLE
  5
3E9
330
1F
100
AcDbEntity
  8
縦断図
  6
Continuous
 62
     7
370
    13
100
AcDbCircle
 10
1.096276924528993
 20
108.3676484132192
 30
0.0
 40
0.0399999999999991
  0
LINE
  5
3EA
330
1F
100
AcDbEntity
  8
縦断図
  6
Continuous
 62
     7
370
    13
100
AcDbLine
 10
1.325708028739719
 20
112.2882738388457
 30
0.0
 11
1.375708028739719
 21
112.2882738388457
 31
0.0
  0
CIRCLE
  5
3EB
330
1F
100
AcDbEntity
  8
縦断図
  6
Continuous
 62
     7
370
    13
100
AcDbCircle
 10
1.527296159149103
 20
113.9987415275542
 30
0.0
 40
0.0399999999999991
  0
LINE
  5
3EC
330
1F
100
AcDbEntity
  8
縦断図
  6
Continuous
 62
     7
370
    13
100
AcDbLine
 10
1.527296159149103
 20
114.8249359794484
 30
0.0
 11
1.527296159149103
 21
114.0387415275542
 31
0.0
  0
CIRCLE
  5
3ED
330
1F
100
AcDbEntity
  8
縦断図
  6
Continuous
 62
     7
370
    13
100
AcDbCircle
 10
2.083296159149103
 20
114.0001462813985
 30
0.0
 40
0.0399999999999991
  0
LINE
  5
3EE
330
1F
100
AcDbEntity
  8
縦断図
  6
Continuous
 62
     7
370
    13
100
AcDbLine
 10
2.083296159149103
 20
114.0401462813984
 30
0.0
 11
2.083296159149103
 21
114.8249359794484
 31
0.0
  0
CIRCLE
  5
3EF
330
1F
100
AcDbEntity
  8
縦断図
  6
Continuous
 62
     7
370
    13
100
AcDbCircle
 10
2.286296159149103
 20
114.0001462813985
 30
0.0
 40
0.0399999999999991
  0
LINE
  5
3F0
330
1F
100
AcDbEntity
  8
縦断図
  6
Continuous
 62
     7
370
    13
100
AcDbLine
 10
2.286296159149103
 20
114.8249359794484
 30
0.0
 11
2.286296159149103
 21
114.0401462813984
 31
0.0
  0
LINE
  5
3F1
330
1F
100
AcDbEntity
  8
縦断図
  6
Continuous
 62
     7
370
    13
100
AcDbLine
 10
-5.911703840850898
 20
113.2956063770344
 30
0.0
 11
-5.911703840850898
 21
113.285760769342
 31
0.0
  0
LINE
  5
3F2
330
1F
100
AcDbEntity
  8
縦断図
  6
Continuous
 62
     7
370
    13
100
AcDbLine
 10
-5.911703840850898
 20
113.3756063770344
 30
0.0
 11
-5.911703840850898
 21
114.2449359794484
 31
0.0
  0
LINE
  5
3F3
330
1F
100
AcDbEntity
  8
縦断図
  6
Continuous
 62
     7
370
    13
100
AcDbLine
 10
-6.167703840850898
 20
114.2449359794484
 30
0.0
 11
-6.167703840850898
 21
113.125201267918
 31
0.0
  0
LINE
  5
3F4
330
1F
100
AcDbEntity
  8
縦断図
  6
Continuous
 62
     7
370
    13
100
AcDbLine
 10
-6.167703840850898
 20
106.1440602183949
 30
0.0
 11
-6.085948540437087
 21
105.9453222517183
 31
0.0
  0
LINE
  5
3F5
330
1F
100
AcDbEntity
  8
縦断図
  6
Continuous
 62
     7
370
    13
100
AcDbLine
 10
-4.973202232289241
 20
108.647077188462
 30
0.0
 11
-4.971402642985714
 21
103.1421991343346
 31
0.0
  0
ELLIPSE
  5
3F6
330
1F
100
AcDbEntity
  8
縦断図
  6
Continuous
 62
     7
370
    13
100
AcDbEllipse
 10
-4.811021156845271
 20
110.32725925353
 30
0.0
 11
0.0
 21
0.0999999999999801
 31
0.0
210
0.0
220
0.0
230
1.0
 40
0.5000000000000284
 41
3.141592653589793
 42
6.283185307179586
  0
ELLIPSE
  5
3F7
330
1F
100
AcDbEntity
  8
縦断図
  6
Continuous
 62
     7
370
    13
100
AcDbEllipse
 10
-4.811021156845271
 20
110.1272592535301
 30
0.0
 11
0.0
 21
-0.09999999999999432
 31
0.0
210
0.0
220
0.0
230
1.0
 40
0.5000000000000284
 41
3.141592653589793
 42
6.283185307179586
  0
ELLIPSE
  5
3F8
330
1F
100
AcDbEntity
  8
縦断図
  6
Continuous
 62
     7
370
    13
100
AcDbEllipse
 10
-4.811021156845271
 20
109.9272548122409
 30
0.0
 11
0.0
 21
0.09999999999999432
 31
0.0
210
0.0
220
0.0
230
1.0
 40
0.5000000000000284
 41
3.141592653589793
 42
6.283185307179586
  0
ELLIPSE
  5
3F9
330
1F
100
AcDbEntity
  8
縦断図
  6
Continuous
 62
     7
370
    13
100
AcDbEllipse
 10
-4.811021156845271
 20
109.727254812241
 30
0.0
 11
0.0
 21
-0.09999999999999432
 31
0.0
210
0.0
220
0.0
230
1.0
 40
0.5000000000000284
 41
3.141592653589793
 42
6.283185307179586
  0
ELLIPSE
  5
3FA
330
1F
100
AcDbEntity
  8
縦断図
  6
Continuous
 62
     7
370
    13
100
AcDbEllipse
 10
-4.811021156845271
 20
109.5272503709519
 30
0.0
 11
0.0
 21
0.0999999999999801
 31
0.0
210
0.0
220
0.0
230
1.0
 40
0.5000000000000284
 41
3.141592653589793
 42
6.283185307179586
  0
ELLIPSE
  5
3FB
330
1F
100
AcDbEntity
  8
縦断図
  6
Continuous
 62
     7
370
    13
100
AcDbEllipse
 10
-4.811021156845271
 20
109.3272503709519
 30
0.0
 11
0.0
 21
-0.0999999999999801
 31
0.0
210
0.0
220
0.0
230
1.0
 40
0.5000000000000284
 41
3.141592653589793
 42
6.283185307179586
  0
ELLIPSE
  5
3FC
330
1F
100
AcDbEntity
  8
縦断図
  6
Continuous
 62
     7
370
    13
100
AcDbEllipse
 10
-4.811021156845271
 20
109.1272459296628
 30
0.0
 11
0.0
 21
0.09999999999999432
 31
0.0
210
0.0
220
0.0
230
1.0
 40
0.5000000000000284
 41
3.141592653589793
 42
6.283185307179586
  0
ELLIPSE
  5
3FD
330
1F
100
AcDbEntity
  8
縦断図
  6
Continuous
 62
     7
370
    13
100
AcDbEllipse
 10
-4.811021156845271
 20
108.9272459296628
 30
0.0
 11
0.0
 21
-0.09999999999999432
 31
0.0
210
0.0
220
0.0
230
1.0
 40
0.5000000000000284
 41
3.141592653589793
 42
6.283185307179586
  0
ELLIPSE
  5
3FE
330
1F
100
AcDbEntity
  8
縦断図
  6
Continuous
 62
     7
370
    13
100
AcDbEllipse
 10
-4.811021156845271
 20
108.7272414883737
 30
0.0
 11
0.0
 21
0.09999999999999432
 31
0.0
210
0.0
220
0.0
230
1.0
 40
0.5000000000000284
 41
3.141592653589793
 42
6.283185307179586
  0
LINE
  5
3FF
330
1F
100
AcDbEntity
  8
縦断図
  6
Continuous
 62
     7
370
    13
100
AcDbLine
 10
-4.874811055318084
 20
109.147077188462
 30
0.0
 11
-5.124811055318084
 21
109.147077188462
 31
0.0
  0
LINE
  5
400
330
1F
100
AcDbEntity
  8
縦断図
  6
Continuous
 62
     7
370
    13
100
AcDbLine
 10
-4.973123248328946
 20
108.647077188462
 30
0.0
 11
-4.874811055318084
 21
108.647077188462
 31
0.0
  0
LINE
  5
401
330
1F
100
AcDbEntity
  8
縦断図
  6
Continuous
 62
     7
370
    13
100
AcDbLine
 10
-5.124811055318084
 20
109.147077188462
 30
0.0
 11
-4.973123248328946
 21
108.647077188462
 31
0.0
  0
LINE
  5
402
330
1F
100
AcDbEntity
  8
縦断図
  6
Continuous
 62
     7
370
    13
100
AcDbLine
 10
-4.874811055318084
 20
109.147077188462
 30
0.0
 11
-4.874811055318084
 21
108.647077188462
 31
0.0
  0
ELLIPSE
  5
403
330
1F
100
AcDbEntity
  8
縦断図
  6
Continuous
 62
     7
370
    13
100
AcDbEllipse
 10
-4.811021156845271
 20
108.5272414883742
 30
0.0
 11
0.0
 21
-0.09999999999999432
 31
0.0
210
0.0
220
0.0
230
1.0
 40
0.5000000000000284
 41
3.141592653589793
 42
6.283185307179586
  0
LINE
  5
404
330
1F
100
AcDbEntity
  8
縦断図
  6
Continuous
 62
     7
370
    13
100
AcDbLine
 10
-5.013660872179727
 20
102.6470725251339
 30
0.0
 11
-4.902661349098221
 21
102.6470725251339
 31
0.0
  0
LINE
  5
405
330
1F
100
AcDbEntity
  8
縦断図
  6
Continuous
 62
     7
370
    13
100
AcDbLine
 10
-2.727703840850893
 20
113.0506169746913
 30
0.0
 11
-2.727703840850893
 21
106.3939909879527
 31
0.0
  0
LINE
  5
406
330
1F
100
AcDbEntity
  8
縦断図
  6
Continuous
 62
     7
370
    13
100
AcDbLine
 10
-2.658816615020037
 20
105.9005742182239
 30
0.0
 11
-2.681656378497909
 21
106.3145827470865
 31
0.0
  0
LINE
  5
407
330
1F
100
AcDbEntity
  8
縦断図
  6
Continuous
 62
     7
370
    13
100
AcDbLine
 10
-2.681656378497909
 20
106.3145827470865
 30
0.0
 11
-2.727557908907531
 21
106.3957008274247
 31
0.0
  0
LINE
  5
408
330
1F
100
AcDbEntity
  8
縦断図
  6
Continuous
 62
     7
370
    13
100
AcDbLine
 10
-2.727557908907531
 20
106.3957008274247
 30
0.0
 11
-2.769816138101543
 21
105.9005742182239
 31
0.0
  0
LINE
  5
409
330
1F
100
AcDbEntity
  8
縦断図
  6
Continuous
 62
     7
370
    13
100
AcDbLine
 10
-2.769816138101543
 20
105.9005742182239
 30
0.0
 11
-2.658816615020037
 21
105.9005742182239
 31
0.0
  0
LINE
  5
40A
330
1F
100
AcDbEntity
  8
縦断図
  6
Continuous
 62
     7
370
    13
100
AcDbLine
 10
-0.7997038408508921
 20
112.2236512191002
 30
0.0
 11
-0.7997038408508921
 21
106.0489184515478
 31
0.0
  0
LINE
  5
40B
330
1F
100
AcDbEntity
  8
縦断図
  6
Continuous
 62
     7
370
    13
100
AcDbLine
 10
-0.7309625469633971
 20
105.553791842347
 30
0.0
 11
-0.753802310441273
 21
105.9678003712096
 31
0.0
  0
LINE
  5
40C
330
1F
100
AcDbEntity
  8
縦断図
  6
Continuous
 62
     7
370
    13
100
AcDbLine
 10
-0.753802310441273
 20
105.9678003712096
 30
0.0
 11
-0.7997038408508921
 21
106.0489184515478
 31
0.0
  0
LINE
  5
40D
330
1F
100
AcDbEntity
  8
縦断図
  6
Continuous
 62
     7
370
    13
100
AcDbLine
 10
-0.7997038408508921
 20
106.0489184515478
 30
0.0
 11
-0.8419620700449038
 21
105.553791842347
 31
0.0
  0
LINE
  5
40E
330
1F
100
AcDbEntity
  8
縦断図
  6
Continuous
 62
     7
370
    13
100
AcDbLine
 10
-0.8419620700449038
 20
105.553791842347
 30
0.0
 11
-0.7309625469633971
 21
105.553791842347
 31
0.0
  0
LINE
  5
40F
330
1F
100
AcDbEntity
  8
縦断図
  6
Continuous
 62
     7
370
    13
100
AcDbLine
 10
1.338296159149102
 20
112.2582738388457
 30
0.0
 11
1.338296159149102
 21
106.0536550696441
 31
0.0
  0
LINE
  5
410
330
1F
100
AcDbEntity
  8
縦断図
  6
Continuous
 62
     7
370
    13
100
AcDbLine
 10
1.407037453036594
 20
105.5585284604433
 30
0.0
 11
1.384197689558722
 21
105.9725369893059
 31
0.0
  0
LINE
  5
411
330
1F
100
AcDbEntity
  8
縦断図
  6
Continuous
 62
     7
370
    13
100
AcDbLine
 10
1.384197689558722
 20
105.9725369893059
 30
0.0
 11
1.338296159149102
 21
106.0536550696441
 31
0.0
  0
LINE
  5
412
330
1F
100
AcDbEntity
  8
縦断図
  6
Continuous
 62
     7
370
    13
100
AcDbLine
 10
1.338296159149102
 20
106.0536550696441
 30
0.0
 11
1.296037929955091
 21
105.5585284604433
 31
0.0
  0
LINE
  5
413
330
1F
100
AcDbEntity
  8
縦断図
  6
Continuous
 62
     7
370
    13
100
AcDbLine
 10
1.296037929955091
 20
105.5585284604433
 30
0.0
 11
1.407037453036594
 21
105.5585284604433
 31
0.0
  0
ENDSEC
  0
SECTION
  2
OBJECTS
  0
DICTIONARY
  5
C
330
0
100
AcDbDictionary
281
     1
  3
ACAD_DETAILVIEWSTYLE
350
41B
  3
ACAD_GROUP
350
D
  3
ACAD_LAYOUT
350
1A
  3
ACAD_MATERIAL
350
43
  3
ACAD_MLEADERSTYLE
350
6B
  3
ACAD_MLINESTYLE
350
17
  3
ACAD_PLOTSETTINGS
350
19
  3
ACAD_PLOTSTYLENAME
350
E
  3
ACAD_SCALELIST
350
47
  3
ACAD_SECTIONVIEWSTYLE
350
41C
  3
ACAD_TABLESTYLE
350
69
  3
ACAD_VISUALSTYLE
350
2A
  3
ACDB_RECOMPOSE_DATA
350
418
  3
AcDbVariableDictionary
350
414
  0
SUN
  5
6D
330
29
100
AcDbSun
 90
        1
290
     0
 63
     7
421
 16777215
 40
1.0
291
     1
 91
  2455826
 92
 54000000
292
     0
 70
     2
 71
   256
280
     1
  0
DICTIONARY
  5
41B
102
{ACAD_REACTORS
330
C
102
}
330
C
100
AcDbDictionary
281
     1
  0
DICTIONARY
  5
D
102
{ACAD_REACTORS
330
C
102
}
330
C
100
AcDbDictionary
281
     1
  0
DICTIONARY
  5
1A
102
{ACAD_REACTORS
330
C
102
}
330
C
100
AcDbDictionary
281
     1
  3
Layout1
350
1E
  3
Layout2
350
26
  3
Model
350
22
  0
DICTIONARY
  5
43
102
{ACAD_REACTORS
330
C
102
}
330
C
100
AcDbDictionary
281
     1
  3
ByBlock
350
45
  3
ByLayer
350
44
  3
Global
350
46
  0
DICTIONARY
  5
6B
102
{ACAD_REACTORS
330
C
102
}
330
C
100
AcDbDictionary
281
     1
  3
Standard
350
6C
  0
DICTIONARY
  5
17
102
{ACAD_REACTORS
330
C
102
}
330
C
100
AcDbDictionary
281
     1
  3
Standard
350
18
  0
DICTIONARY
  5
19
102
{ACAD_REACTORS
330
C
102
}
330
C
100
AcDbDictionary
281
     1
  0
ACDBDICTIONARYWDFLT
  5
E
102
{ACAD_REACTORS
330
C
102
}
330
C
100
AcDbDictionary
281
     1
  3
Normal
350
F
100
AcDbDictionaryWithDefault
340
F
  0
DICTIONARY
  5
47
102
{ACAD_REACTORS
330
C
102
}
330
C
100
AcDbDictionary
281
     1
  3
A0
350
48
  3
A1
350
49
  3
A2
350
4A
  3
A3
350
4B
  3
A4
350
4C
  3
A5
350
4D
  3
A6
350
4E
  3
A7
350
4F
  3
A8
350
50
  3
A9
350
51
  3
B0
350
52
  3
B1
350
53
  3
B2
350
54
  3
B3
350
55
  3
B4
350
56
  3
B5
350
57
  3
B6
350
58
  3
B7
350
59
  3
B8
350
5A
  3
B9
350
5B
  3
C0
350
5C
  3
C1
350
5D
  3
C2
350
5E
  3
C3
350
5F
  3
C4
350
60
  3
C5
350
61
  3
C6
350
62
  3
C7
350
63
  3
C8
350
64
  3
C9
350
65
  3
D0
350
66
  3
D1
350
67
  3
D2
350
68
  0
DICTIONARY
  5
41C
102
{ACAD_REACTORS
330
C
102
}
330
C
100
AcDbDictionary
281
     1
  0
DICTIONARY
  5
69
102
{ACAD_REACTORS
330
C
102
}
330
C
100
AcDbDictionary
281
     1
  3
Standard
350
6A
  0
DICTIONARY
  5
2A
102
{ACAD_REACTORS
330
C
102
}
330
C
100
AcDbDictionary
281
     1
  3
2dWireframe
350
2F
  3
Basic
350
32
  3
Brighten
350
36
  3
ColorChange
350
3A
  3
Conceptual
350
34
  3
Dim
350
35
  3
EdgeColorOff
350
3D
  3
Facepattern
350
39
  3
Flat
350
2B
  3
FlatWithEdges
350
2C
  3
Gouraud
350
2D
  3
GouraudWithEdges
350
2E
  3
Hidden
350
31
  3
JitterOff
350
3B
  3
Linepattern
350
38
  3
OverhangOff
350
3C
  3
Realistic
350
33
  3
Shaded
350
42
  3
Shaded with edges
350
41
  3
Shades of Gray
350
3E
  3
Sketchy
350
3F
  3
Thicken
350
37
  3
Wireframe
350
30
  3
X-Ray
350
40
  0
XRECORD
  5
418
102
{ACAD_REACTORS
330
C
102
}
330
C
100
AcDbXrecord
280
     1
 90
        1
330
6A
  0
DICTIONARY
  5
414
102
{ACAD_REACTORS
330
C
102
}
330
C
100
AcDbDictionary
281
     1
  3
CANNOSCALE
350
415
  3
CMLEADERSTYLE
350
41A
  3
CTABLESTYLE
350
419
  0
LAYOUT
  5
1E
102
{ACAD_REACTORS
330
1A
102
}
330
1A
100
AcDbPlotSettings
  1

  2
none_device
  4

  6

 40
0.0
 41
0.0
 42
0.0
 43
0.0
 44
0.0
 45
0.0
 46
0.0
 47
0.0
 48
0.0
 49
0.0
140
0.0
141
0.0
142
1.0
143
1.0
 70
   688
 72
     0
 73
     0
 74
     5
  7

 75
    16
 76
     0
 77
     2
 78
   300
147
1.0
148
0.0
149
0.0
100
AcDbLayout
  1
Layout1
 70
     1
 71
     1
 10
0.0
 20
0.0
 11
12.0
 21
9.0
 12
0.0
 22
0.0
 32
0.0
 14
1.000000000000000E+20
 24
1.000000000000000E+20
 34
1.000000000000000E+20
 15
-1.000000000000000E+20
 25
-1.000000000000000E+20
 35
-1.000000000000000E+20
146
0.0
 13
0.0
 23
0.0
 33
0.0
 16
1.0
 26
0.0
 36
0.0
 17
0.0
 27
1.0
 37
0.0
 76
     0
330
1B
  0
LAYOUT
  5
26
102
{ACAD_REACTORS
330
1A
102
}
330
1A
100
AcDbPlotSettings
  1

  2
none_device
  4

  6

 40
0.0
 41
0.0
 42
0.0
 43
0.0
 44
0.0
 45
0.0
 46
0.0
 47
0.0
 48
0.0
 49
0.0
140
0.0
141
0.0
142
1.0
143
1.0
 70
   688
 72
     0
 73
     0
 74
     5
  7

 75
    16
 76
     0
 77
     2
 78
   300
147
1.0
148
0.0
149
0.0
100
AcDbLayout
  1
Layout2
 70
     1
 71
     2
 10
0.0
 20
0.0
 11
0.0
 21
0.0
 12
0.0
 22
0.0
 32
0.0
 14
0.0
 24
0.0
 34
0.0
 15
0.0
 25
0.0
 35
0.0
146
0.0
 13
0.0
 23
0.0
 33
0.0
 16
1.0
 26
0.0
 36
0.0
 17
0.0
 27
1.0
 37
0.0
 76
     0
330
23
  0
LAYOUT
  5
22
102
{ACAD_REACTORS
330
1A
102
}
330
1A
100
AcDbPlotSettings
  1

  2
none_device
  4
Letter_(8.50_x_11.00_Inches)
  6

 40
6.35
 41
6.35
 42
6.35000508
 43
6.35000508
 44
215.9
 45
279.4
 46
0.0
 47
0.0
 48
0.0
 49
0.0
140
0.0
141
0.0
142
1.0
143
1.0
 70
  1712
 72
     0
 73
     0
 74
     0
  7

 75
     0
 76
     0
 77
     2
 78
   300
147
1.0
148
0.0
149
0.0
100
AcDbLayout
  1
Model
 70
     1
 71
     0
 10
-20.0
 20
95.0
 11
20.0
 21
122.7
 12
0.0
 22
0.0
 32
0.0
 14
-20.0
 24
95.0
 34
0.0
 15
20.0
 25
122.7
 35
0.0
146
0.0
 13
0.0
 23
0.0
 33
0.0
 16
1.0
 26
0.0
 36
0.0
 17
0.0
 27
1.0
 37
0.0
 76
     0
330
1F
331
29
  0
MATERIAL
  5
45
102
{ACAD_REACTORS
330
43
102
}
330
43
100
AcDbMaterial
  1
ByBlock
 72
     1
 94
      127
  0
MATERIAL
  5
44
102
{ACAD_REACTORS
330
43
102
}
330
43
100
AcDbMaterial
  1
ByLayer
 72
     1
 94
      127
  0
MATERIAL
  5
46
102
{ACAD_REACTORS
330
43
102
}
330
43
100
AcDbMaterial
  1
Global
 72
     1
 94
      127
  0
MLEADERSTYLE
  5
6C
102
{ACAD_REACTORS
330
6B
102
}
330
6B
100
AcDbMLeaderStyle
179
     2
170
     2
171
     1
172
     0
 90
        2
 40
0.0
 41
0.0
173
     1
 91
-1056964608
340
14
 92
       -2
290
     1
 42
0.09
291
     1
 43
0.36
  3
Standard
341
0
 44
0.18
300

342
11
174
     1
178
     6
175
     1
176
     0
 93
-1056964608
 45
0.18
292
     0
297
     0
 46
0.18
343
0
 94
-1056964608
 47
1.0
 49
1.0
140
1.0
293
     1
141
0.0
294
     1
177
     0
142
1.0
295
     0
296
     0
143
0.125
271
     0
272
     9
273
     9
298
     0
  0
MLINESTYLE
  5
18
102
{ACAD_REACTORS
330
17
102
}
330
17
100
AcDbMlineStyle
  2
Standard
 70
     0
  3

 62
   256
 51
90.0
 52
90.0
 71
     2
 49
0.5
 62
   256
  6
BYLAYER
 49
-0.5
 62
   256
  6
BYLAYER
  0
ACDBPLACEHOLDER
  5
F
102
{ACAD_REACTORS
330
E
102
}
330
E
  0
SCALE
  5
48
102
{ACAD_REACTORS
330
47
102
}
330
47
100
AcDbScale
 70
     0
300
1:1
140
1.0
141
1.0
290
     1
  0
SCALE
  5
49
102
{ACAD_REACTORS
330
47
102
}
330
47
100
AcDbScale
 70
     0
300
1:2
140
1.0
141
2.0
290
     0
  0
SCALE
  5
4A
102
{ACAD_REACTORS
330
47
102
}
330
47
100
AcDbScale
 70
     0
300
1:4
140
1.0
141
4.0
290
     0
  0
SCALE
  5
4B
102
{ACAD_REACTORS
330
47
102
}
330
47
100
AcDbScale
 70
     0
300
1:5
140
1.0
141
5.0
290
     0
  0
SCALE
  5
4C
102
{ACAD_REACTORS
330
47
102
}
330
47
100
AcDbScale
 70
     0
300
1:8
140
1.0
141
8.0
290
     0
  0
SCALE
  5
4D
102
{ACAD_REACTORS
330
47
102
}
330
47
100
AcDbScale
 70
     0
300
1:10
140
1.0
141
10.0
290
     0
  0
SCALE
  5
4E
102
{ACAD_REACTORS
330
47
102
}
330
47
100
AcDbScale
 70
     0
300
1:16
140
1.0
141
16.0
290
     0
  0
SCALE
  5
4F
102
{ACAD_REACTORS
330
47
102
}
330
47
100
AcDbScale
 70
     0
300
1:20
140
1.0
141
20.0
290
     0
  0
SCALE
  5
50
102
{ACAD_REACTORS
330
47
102
}
330
47
100
AcDbScale
 70
     0
300
1:30
140
1.0
141
30.0
290
     0
  0
SCALE
  5
51
102
{ACAD_REACTORS
330
47
102
}
330
47
100
AcDbScale
 70
     0
300
1:40
140
1.0
141
40.0
290
     0
  0
SCALE
  5
52
102
{ACAD_REACTORS
330
47
102
}
330
47
100
AcDbScale
 70
     0
300
1:50
140
1.0
141
50.0
290
     0
  0
SCALE
  5
53
102
{ACAD_REACTORS
330
47
102
}
330
47
100
AcDbScale
 70
     0
300
1:100
140
1.0
141
100.0
290
     0
  0
SCALE
  5
54
102
{ACAD_REACTORS
330
47
102
}
330
47
100
AcDbScale
 70
     0
300
2:1
140
2.0
141
1.0
290
     0
  0
SCALE
  5
55
102
{ACAD_REACTORS
330
47
102
}
330
47
100
AcDbScale
 70
     0
300
4:1
140
4.0
141
1.0
290
     0
  0
SCALE
  5
56
102
{ACAD_REACTORS
330
47
102
}
330
47
100
AcDbScale
 70
     0
300
8:1
140
8.0
141
1.0
290
     0
  0
SCALE
  5
57
102
{ACAD_REACTORS
330
47
102
}
330
47
100
AcDbScale
 70
     0
300
10:1
140
10.0
141
1.0
290
     0
  0
SCALE
  5
58
102
{ACAD_REACTORS
330
47
102
}
330
47
100
AcDbScale
 70
     0
300
100:1
140
100.0
141
1.0
290
     0
  0
SCALE
  5
59
102
{ACAD_REACTORS
330
47
102
}
330
47
100
AcDbScale
 70
     0
300
1/128" = 1'-0"
140
0.0078125
141
12.0
290
     0
  0
SCALE
  5
5A
102
{ACAD_REACTORS
330
47
102
}
330
47
100
AcDbScale
 70
     0
300
1/64" = 1'-0"
140
0.015625
141
12.0
290
     0
  0
SCALE
  5
5B
102
{ACAD_REACTORS
330
47
102
}
330
47
100
AcDbScale
 70
     0
300
1/32" = 1'-0"
140
0.03125
141
12.0
290
     0
  0
SCALE
  5
5C
102
{ACAD_REACTORS
330
47
102
}
330
47
100
AcDbScale
 70
     0
300
1/16" = 1'-0"
140
0.0625
141
12.0
290
     0
  0
SCALE
  5
5D
102
{ACAD_REACTORS
330
47
102
}
330
47
100
AcDbScale
 70
     0
300
3/32" = 1'-0"
140
0.09375
141
12.0
290
     0
  0
SCALE
  5
5E
102
{ACAD_REACTORS
330
47
102
}
330
47
100
AcDbScale
 70
     0
300
1/8" = 1'-0"
140
0.125
141
12.0
290
     0
  0
SCALE
  5
5F
102
{ACAD_REACTORS
330
47
102
}
330
47
100
AcDbScale
 70
     0
300
3/16" = 1'-0"
140
0.1875
141
12.0
290
     0
  0
SCALE
  5
60
102
{ACAD_REACTORS
330
47
102
}
330
47
100
AcDbScale
 70
     0
300
1/4" = 1'-0"
140
0.25
141
12.0
290
     0
  0
SCALE
  5
61
102
{ACAD_REACTORS
330
47
102
}
330
47
100
AcDbScale
 70
     0
300
3/8" = 1'-0"
140
0.375
141
12.0
290
     0
  0
SCALE
  5
62
102
{ACAD_REACTORS
330
47
102
}
330
47
100
AcDbScale
 70
     0
300
1/2" = 1'-0"
140
0.5
141
12.0
290
     0
  0
SCALE
  5
63
102
{ACAD_REACTORS
330
47
102
}
330
47
100
AcDbScale
 70
     0
300
3/4" = 1'-0"
140
0.75
141
12.0
290
     0
  0
SCALE
  5
64
102
{ACAD_REACTORS
330
47
102
}
330
47
100
AcDbScale
 70
     0
300
1" = 1'-0"
140
1.0
141
12.0
290
     0
  0
SCALE
  5
65
102
{ACAD_REACTORS
330
47
102
}
330
47
100
AcDbScale
 70
     0
300
1-1/2" = 1'-0"
140
1.5
141
12.0
290
     0
  0
SCALE
  5
66
102
{ACAD_REACTORS
330
47
102
}
330
47
100
AcDbScale
 70
     0
300
3" = 1'-0"
140
3.0
141
12.0
290
     0
  0
SCALE
  5
67
102
{ACAD_REACTORS
330
47
102
}
330
47
100
AcDbScale
 70
     0
300
6" = 1'-0"
140
6.0
141
12.0
290
     0
  0
SCALE
  5
68
102
{ACAD_REACTORS
330
47
102
}
330
47
100
AcDbScale
 70
     0
300
1'-0" = 1'-0"
140
12.0
141
12.0
290
     0
  0
TABLESTYLE
  5
6A
102
{ACAD_REACTORS
330
69
102
}
102
{ACAD_XDICTIONARY
360
416
102
}
330
69
100
AcDbTableStyle
  3
Standard
 70
     0
 71
     0
 40
0.06
 41
0.06
280
     0
281
     0
  7
Standard
140
0.18
170
     2
 62
     0
 63
   257
283
     0
 90
        4
 91
        0
  1

274
    -2
284
     1
 64
     0
275
    -2
285
     1
 65
     0
276
    -2
286
     1
 66
     0
277
    -2
287
     1
 67
     0
278
    -2
288
     1
 68
     0
279
    -2
289
     1
 69
     0
  7
Standard
140
0.25
170
     5
 62
     0
 63
   257
283
     0
 90
        4
 91
        0
  1

274
    -2
284
     1
 64
     0
275
    -2
285
     1
 65
     0
276
    -2
286
     1
 66
     0
277
    -2
287
     1
 67
     0
278
    -2
288
     1
 68
     0
279
    -2
289
     1
 69
     0
  7
Standard
140
0.18
170
     5
 62
     0
 63
   257
283
     0
 90
        4
 91
        0
  1

274
    -2
284
     1
 64
     0
275
    -2
285
     1
 65
     0
276
    -2
286
     1
 66
     0
277
    -2
287
     1
 67
     0
278
    -2
288
     1
 68
     0
279
    -2
289
     1
 69
     0
  0
VISUALSTYLE
  5
2F
102
{ACAD_REACTORS
330
2A
102
}
330
2A
100
AcDbVisualStyle
  2
2dWireframe
 70
     4
177
     3
291
     0
 70
    58
 90
        0
176
     1
 90
        2
176
     1
 90
        0
176
     1
 90
        0
176
     1
 40
0.6
176
     1
 40
30.0
176
     1
 62
     7
420
 16777215
176
     1
 90
        1
176
     1
 90
        4
176
     1
 62
     7
176
     1
 62
   257
176
     1
 90
        1
176
     1
 90
        1
176
     1
 40
1.0
176
     1
 90
        0
176
     1
 62
   257
176
     1
 40
1.0
176
     1
 90
        1
176
     1
 90
        6
176
     1
 90
        2
176
     1
 62
     7
176
     1
 90
        5
176
     1
 90
        0
176
     1
 90
        0
176
     1
290
     0
176
     1
 90
        1
176
     1
 40
0.0
176
     1
 90
        0
176
     1
290
     1
176
     1
290
     1
176
     1
290
     0
176
     1
290
     0
176
     1
290
     0
176
     1
290
     0
176
     1
290
     0
176
     1
290
     0
176
     1
290
     0
176
     1
 90
       50
176
     1
 40
0.0
176
     1
 40
1.0
176
     1
 90
        0
176
     1
 62
    18
420
        0
176
     1
 90
       50
176
     1
 90
        3
176
     1
 62
     5
420
      255
176
     1
290
     0
176
     1
 90
       50
176
     1
 90
       50
176
     1
 90
       50
176
     1
290
     0
176
     1
 90
       50
176
     1
 62
   256
176
     0
 40
1.0
176
     0
 90
        2
176
     1
  1
strokes_ogs.tif
176
     1
290
     0
176
     1
 40
1.0
176
     1
 40
1.0
176
     1
  0
VISUALSTYLE
  5
32
102
{ACAD_REACTORS
330
2A
102
}
330
2A
100
AcDbVisualStyle
  2
Basic
 70
     7
177
     3
291
     1
 70
    58
 90
        1
176
     1
 90
        0
176
     1
 90
        1
176
     1
 90
        0
176
     1
 40
0.6
176
     1
 40
30.0
176
     1
 62
     7
420
 16777215
176
     1
 90
        0
176
     1
 90
        4
176
     1
 62
     7
176
     1
 62
   257
176
     1
 90
        1
176
     1
 90
        1
176
     1
 40
1.0
176
     1
 90
        8
176
     1
 62
     7
176
     1
 40
1.0
176
     1
 90
        1
176
     1
 90
        6
176
     1
 90
        2
176
     1
 62
     7
176
     1
 90
        5
176
     1
 90
        0
176
     1
 90
        0
176
     1
290
     0
176
     1
 90
        1
176
     1
 40
0.0
176
     1
 90
        0
176
     1
290
     0
176
     1
290
     1
176
     1
290
     1
176
     1
290
     0
176
     1
290
     0
176
     1
290
     0
176
     1
290
     0
176
     1
290
     0
176
     1
290
     0
176
     1
 90
       50
176
     1
 40
0.0
176
     1
 40
1.0
176
     1
 90
        0
176
     1
 62
    18
420
        0
176
     1
 90
       50
176
     1
 90
        3
176
     1
 62
     5
420
      255
176
     1
290
     0
176
     1
 90
       50
176
     1
 90
       50
176
     1
 90
       50
176
     1
290
     0
176
     1
 90
       50
176
     1
 62
   256
176
     0
 40
1.0
176
     0
 90
        2
176
     1
  1
strokes_ogs.tif
176
     1
290
     0
176
     1
 40
1.0
176
     1
 40
1.0
176
     1
  0
VISUALSTYLE
  5
36
102
{ACAD_REACTORS
330
2A
102
}
330
2A
100
AcDbVisualStyle
  2
Brighten
 70
    12
177
     3
291
     1
 70
    58
 90
        2
176
     1
 90
        2
176
     1
 90
        0
176
     1
 90
        0
176
     1
 40
0.6
176
     1
 40
30.0
176
     1
 62
     7
420
 16777215
176
     1
 90
        1
176
     1
 90
        4
176
     1
 62
     7
176
     1
 62
   257
176
     1
 90
        1
176
     1
 90
        1
176
     1
 40
1.0
176
     1
 90
        8
176
     1
 62
     7
176
     1
 40
1.0
176
     1
 90
        1
176
     1
 90
        6
176
     1
 90
        2
176
     1
 62
     7
176
     1
 90
        5
176
     1
 90
        0
176
     1
 90
        0
176
     1
290
     0
176
     1
 90
        1
176
     1
 40
50.0
176
     1
 90
        0
176
     1
290
     0
176
     1
290
     1
176
     1
290
     1
176
     1
290
     0
176
     1
290
     0
176
     1
290
     0
176
     1
290
     0
176
     1
290
     0
176
     1
290
     0
176
     1
 90
       50
176
     1
 40
0.0
176
     1
 40
1.0
176
     1
 90
        0
176
     1
 62
    18
420
        0
176
     1
 90
       50
176
     1
 90
        3
176
     1
 62
     5
420
      255
176
     1
290
     0
176
     1
 90
       50
176
     1
 90
       50
176
     1
 90
       50
176
     1
290
     0
176
     1
 90
       50
176
     1
 62
   256
176
     0
 40
1.0
176
     0
 90
        2
176
     1
  1
strokes_ogs.tif
176
     1
290
     0
176
     1
 40
1.0
176
     1
 40
1.0
176
     1
  0
VISUALSTYLE
  5
3A
102
{ACAD_REACTORS
330
2A
102
}
330
2A
100
AcDbVisualStyle
  2
ColorChange
 70
    16
177
     3
291
     1
 70
    58
 90
        2
176
     1
 90
        2
176
     1
 90
        3
176
     1
 90
        0
176
     1
 40
0.6
176
     1
 40
30.0
176
     1
 62
     8
420
  8421504
176
     1
 90
        1
176
     1
 90
        4
176
     1
 62
     7
176
     1
 62
   257
176
     1
 90
        1
176
     1
 90
        1
176
     1
 40
1.0
176
     1
 90
        8
176
     1
 62
     8
420
  8421504
176
     1
 40
1.0
176
     1
 90
        1
176
     1
 90
        6
176
     1
 90
        2
176
     1
 62
     7
176
     1
 90
        5
176
     1
 90
        0
176
     1
 90
        0
176
     1
290
     0
176
     1
 90
        1
176
     1
 40
0.0
176
     1
 90
        0
176
     1
290
     0
176
     1
290
     1
176
     1
290
     1
176
     1
290
     0
176
     1
290
     0
176
     1
290
     0
176
     1
290
     0
176
     1
290
     0
176
     1
290
     0
176
     1
 90
       50
176
     1
 40
0.0
176
     1
 40
1.0
176
     1
 90
        0
176
     1
 62
    18
420
        0
176
     1
 90
       50
176
     1
 90
        3
176
     1
 62
     5
420
      255
176
     1
290
     0
176
     1
 90
       50
176
     1
 90
       50
176
     1
 90
       50
176
     1
290
     0
176
     1
 90
       50
176
     1
 62
   256
176
     0
 40
1.0
176
     0
 90
        2
176
     1
  1
strokes_ogs.tif
176
     1
290
     0
176
     1
 40
1.0
176
     1
 40
1.0
176
     1
  0
VISUALSTYLE
  5
34
102
{ACAD_REACTORS
330
2A
102
}
330
2A
100
AcDbVisualStyle
  2
Conceptual
 70
     9
177
     3
291
     0
 70
    58
 90
        3
176
     1
 90
        2
176
     1
 90
        0
176
     1
 90
        0
176
     1
 40
0.6
176
     1
 40
30.0
176
     1
 62
     7
420
 16777215
176
     1
 90
        2
176
     1
 90
        2
176
     1
 62
     7
176
     1
 62
   257
176
     1
 90
        1
176
     1
 90
        1
176
     1
 40
179.0
176
     1
 90
        8
176
     1
 62
     7
176
     1
 40
1.0
176
     1
 90
        1
176
     1
 90
        6
176
     1
 90
        2
176
     1
 62
     7
176
     1
 90
        3
176
     1
 90
        0
176
     1
 90
        0
176
     1
290
     0
176
     1
 90
        1
176
     1
 40
0.0
176
     1
 90
        0
176
     1
290
     0
176
     1
290
     1
176
     1
290
     1
176
     1
290
     0
176
     1
290
     0
176
     1
290
     0
176
     1
290
     0
176
     1
290
     0
176
     1
290
     0
176
     1
 90
       50
176
     1
 40
0.0
176
     1
 40
1.0
176
     1
 90
        0
176
     1
 62
    18
420
        0
176
     1
 90
       50
176
     1
 90
        3
176
     1
 62
     5
420
      255
176
     1
290
     0
176
     1
 90
       50
176
     1
 90
       50
176
     1
 90
       50
176
     1
290
     0
176
     1
 90
       50
176
     1
 62
   256
176
     0
 40
1.0
176
     0
 90
        2
176
     1
  1
strokes_ogs.tif
176
     1
290
     0
176
     1
 40
1.0
176
     1
 40
1.0
176
     1
  0
VISUALSTYLE
  5
35
102
{ACAD_REACTORS
330
2A
102
}
330
2A
100
AcDbVisualStyle
  2
Dim
 70
    11
177
     3
291
     1
 70
    58
 90
        2
176
     1
 90
        2
176
     1
 90
        0
176
     1
 90
        0
176
     1
 40
0.6
176
     1
 40
30.0
176
     1
 62
     7
420
 16777215
176
     1
 90
        1
176
     1
 90
        4
176
     1
 62
     7
176
     1
 62
   257
176
     1
 90
        1
176
     1
 90
        1
176
     1
 40
1.0
176
     1
 90
        8
176
     1
 62
     7
176
     1
 40
1.0
176
     1
 90
        1
176
     1
 90
        6
176
     1
 90
        2
176
     1
 62
     7
176
     1
 90
        5
176
     1
 90
        0
176
     1
 90
        0
176
     1
290
     0
176
     1
 90
        1
176
     1
 40
-50.0
176
     1
 90
        0
176
     1
290
     0
176
     1
290
     1
176
     1
290
     1
176
     1
290
     0
176
     1
290
     0
176
     1
290
     0
176
     1
290
     0
176
     1
290
     0
176
     1
290
     0
176
     1
 90
       50
176
     1
 40
0.0
176
     1
 40
1.0
176
     1
 90
        0
176
     1
 62
    18
420
        0
176
     1
 90
       50
176
     1
 90
        3
176
     1
 62
     5
420
      255
176
     1
290
     0
176
     1
 90
       50
176
     1
 90
       50
176
     1
 90
       50
176
     1
290
     0
176
     1
 90
       50
176
     1
 62
   256
176
     0
 40
1.0
176
     0
 90
        2
176
     1
  1
strokes_ogs.tif
176
     1
290
     0
176
     1
 40
1.0
176
     1
 40
1.0
176
     1
  0
VISUALSTYLE
  5
3D
102
{ACAD_REACTORS
330
2A
102
}
330
2A
100
AcDbVisualStyle
  2
EdgeColorOff
 70
    22
177
     3
291
     1
 70
    58
 90
        2
176
     0
 90
        2
176
     0
 90
        0
176
     0
 90
        0
176
     0
 40
0.6
176
     0
 40
30.0
176
     0
 62
     7
420
 16777215
176
     0
 90
        1
176
     0
 90
        4
176
     0
 62
     7
176
     0
 62
   257
176
     0
 90
        1
176
     0
 90
        1
176
     0
 40
1.0
176
     0
 90
        8
176
     2
 62
     7
176
     0
 40
1.0
176
     0
 90
        1
176
     0
 90
        6
176
     0
 90
        2
176
     0
 62
     7
176
     0
 90
        5
176
     0
 90
        0
176
     0
 90
        0
176
     0
290
     0
176
     0
 90
        1
176
     0
 40
0.0
176
     0
 90
        0
176
     0
290
     0
176
     0
290
     1
176
     0
290
     1
176
     0
290
     0
176
     0
290
     0
176
     0
290
     0
176
     0
290
     0
176
     0
290
     0
176
     0
290
     0
176
     0
 90
       50
176
     0
 40
0.0
176
     0
 40
1.0
176
     0
 90
        0
176
     0
 62
    18
420
        0
176
     0
 90
       50
176
     0
 90
        3
176
     0
 62
     5
420
      255
176
     0
290
     0
176
     0
 90
       50
176
     0
 90
       50
176
     0
 90
       50
176
     0
290
     0
176
     0
 90
       50
176
     0
 62
   256
176
     0
 40
1.0
176
     0
 90
        2
176
     0
  1
strokes_ogs.tif
176
     0
290
     0
176
     0
 40
1.0
176
     0
 40
1.0
176
     0
  0
VISUALSTYLE
  5
39
102
{ACAD_REACTORS
330
2A
102
}
330
2A
100
AcDbVisualStyle
  2
Facepattern
 70
    15
177
     3
291
     1
 70
    58
 90
        2
176
     1
 90
        2
176
     1
 90
        0
176
     1
 90
        0
176
     1
 40
0.6
176
     1
 40
30.0
176
     1
 62
     7
420
 16777215
176
     1
 90
        1
176
     1
 90
        4
176
     1
 62
     7
176
     1
 62
   257
176
     1
 90
        1
176
     1
 90
        1
176
     1
 40
1.0
176
     1
 90
        8
176
     1
 62
     7
176
     1
 40
1.0
176
     1
 90
        1
176
     1
 90
        6
176
     1
 90
        2
176
     1
 62
     7
176
     1
 90
        5
176
     1
 90
        0
176
     1
 90
        0
176
     1
290
     0
176
     1
 90
        1
176
     1
 40
0.0
176
     1
 90
        0
176
     1
290
     0
176
     1
290
     1
176
     1
290
     1
176
     1
290
     0
176
     1
290
     0
176
     1
290
     0
176
     1
290
     0
176
     1
290
     0
176
     1
290
     0
176
     1
 90
       50
176
     1
 40
0.0
176
     1
 40
1.0
176
     1
 90
        0
176
     1
 62
    18
420
        0
176
     1
 90
       50
176
     1
 90
        3
176
     1
 62
     5
420
      255
176
     1
290
     0
176
     1
 90
       50
176
     1
 90
       50
176
     1
 90
       50
176
     1
290
     0
176
     1
 90
       50
176
     1
 62
   256
176
     0
 40
1.0
176
     0
 90
        2
176
     1
  1
strokes_ogs.tif
176
     1
290
     0
176
     1
 40
1.0
176
     1
 40
1.0
176
     1
  0
VISUALSTYLE
  5
2B
102
{ACAD_REACTORS
330
2A
102
}
330
2A
100
AcDbVisualStyle
  2
Flat
 70
     0
177
     3
291
     1
 70
    58
 90
        2
176
     1
 90
        1
176
     1
 90
        1
176
     1
 90
        2
176
     1
 40
0.6
176
     1
 40
30.0
176
     1
 62
     7
420
 16777215
176
     1
 90
        0
176
     1
 90
        0
176
     1
 62
     7
176
     1
 62
   257
176
     1
 90
        1
176
     1
 90
        1
176
     1
 40
1.0
176
     1
 90
        8
176
     1
 62
     7
176
     1
 40
1.0
176
     1
 90
        1
176
     1
 90
        6
176
     1
 90
        2
176
     1
 62
     7
176
     1
 90
        5
176
     1
 90
        0
176
     1
 90
        0
176
     1
290
     0
176
     1
 90
       13
176
     1
 40
0.0
176
     1
 90
        0
176
     1
290
     0
176
     1
290
     1
176
     1
290
     1
176
     1
290
     0
176
     1
290
     0
176
     1
290
     0
176
     1
290
     0
176
     1
290
     0
176
     1
290
     0
176
     1
 90
       50
176
     1
 40
0.0
176
     1
 40
1.0
176
     1
 90
        0
176
     1
 62
    18
420
        0
176
     1
 90
       50
176
     1
 90
        3
176
     1
 62
     5
420
      255
176
     1
290
     0
176
     1
 90
       50
176
     1
 90
       50
176
     1
 90
       50
176
     1
290
     0
176
     1
 90
       50
176
     1
 62
   256
176
     0
 40
1.0
176
     0
 90
        2
176
     1
  1
strokes_ogs.tif
176
     1
290
     0
176
     1
 40
1.0
176
     1
 40
1.0
176
     1
  0
VISUALSTYLE
  5
2C
102
{ACAD_REACTORS
330
2A
102
}
330
2A
100
AcDbVisualStyle
  2
FlatWithEdges
 70
     1
177
     3
291
     1
 70
    58
 90
        2
176
     1
 90
        1
176
     1
 90
        1
176
     1
 90
        2
176
     1
 40
0.6
176
     1
 40
30.0
176
     1
 62
     7
420
 16777215
176
     1
 90
        1
176
     1
 90
        0
176
     1
 62
     7
176
     1
 62
   257
176
     1
 90
        1
176
     1
 90
        1
176
     1
 40
1.0
176
     1
 90
        0
176
     1
 62
   257
176
     1
 40
1.0
176
     1
 90
        1
176
     1
 90
        6
176
     1
 90
        2
176
     1
 62
     7
176
     1
 90
        5
176
     1
 90
        0
176
     1
 90
        0
176
     1
290
     0
176
     1
 90
       13
176
     1
 40
0.0
176
     1
 90
        0
176
     1
290
     0
176
     1
290
     1
176
     1
290
     1
176
     1
290
     0
176
     1
290
     0
176
     1
290
     0
176
     1
290
     0
176
     1
290
     0
176
     1
290
     0
176
     1
 90
       50
176
     1
 40
0.0
176
     1
 40
1.0
176
     1
 90
        0
176
     1
 62
    18
420
        0
176
     1
 90
       50
176
     1
 90
        3
176
     1
 62
     5
420
      255
176
     1
290
     0
176
     1
 90
       50
176
     1
 90
       50
176
     1
 90
       50
176
     1
290
     0
176
     1
 90
       50
176
     1
 62
   256
176
     0
 40
1.0
176
     0
 90
        2
176
     1
  1
strokes_ogs.tif
176
     1
290
     0
176
     1
 40
1.0
176
     1
 40
1.0
176
     1
  0
VISUALSTYLE
  5
2D
102
{ACAD_REACTORS
330
2A
102
}
330
2A
100
AcDbVisualStyle
  2
Gouraud
 70
     2
177
     3
291
     1
 70
    58
 90
        2
176
     1
 90
        2
176
     1
 90
        1
176
     1
 90
        2
176
     1
 40
0.6
176
     1
 40
30.0
176
     1
 62
     7
420
 16777215
176
     1
 90
        0
176
     1
 90
        0
176
     1
 62
     7
176
     1
 62
   257
176
     1
 90
        1
176
     1
 90
        1
176
     1
 40
1.0
176
     1
 90
        0
176
     1
 62
     7
176
     1
 40
1.0
176
     1
 90
        1
176
     1
 90
        6
176
     1
 90
        2
176
     1
 62
     7
176
     1
 90
        5
176
     1
 90
        0
176
     1
 90
        0
176
     1
290
     0
176
     1
 90
       13
176
     1
 40
0.0
176
     1
 90
        0
176
     1
290
     0
176
     1
290
     1
176
     1
290
     1
176
     1
290
     0
176
     1
290
     0
176
     1
290
     0
176
     1
290
     0
176
     1
290
     0
176
     1
290
     0
176
     1
 90
       50
176
     1
 40
0.0
176
     1
 40
1.0
176
     1
 90
        0
176
     1
 62
    18
420
        0
176
     1
 90
       50
176
     1
 90
        3
176
     1
 62
     5
420
      255
176
     1
290
     0
176
     1
 90
       50
176
     1
 90
       50
176
     1
 90
       50
176
     1
290
     0
176
     1
 90
       50
176
     1
 62
   256
176
     0
 40
1.0
176
     0
 90
        2
176
     1
  1
strokes_ogs.tif
176
     1
290
     0
176
     1
 40
1.0
176
     1
 40
1.0
176
     1
  0
VISUALSTYLE
  5
2E
102
{ACAD_REACTORS
330
2A
102
}
330
2A
100
AcDbVisualStyle
  2
GouraudWithEdges
 70
     3
177
     3
291
     1
 70
    58
 90
        2
176
     1
 90
        2
176
     1
 90
        1
176
     1
 90
        2
176
     1
 40
0.6
176
     1
 40
30.0
176
     1
 62
     7
420
 16777215
176
     1
 90
        1
176
     1
 90
        0
176
     1
 62
     7
176
     1
 62
   257
176
     1
 90
        1
176
     1
 90
        1
176
     1
 40
1.0
176
     1
 90
        0
176
     1
 62
   257
176
     1
 40
1.0
176
     1
 90
        1
176
     1
 90
        6
176
     1
 90
        2
176
     1
 62
     7
176
     1
 90
        5
176
     1
 90
        0
176
     1
 90
        0
176
     1
290
     0
176
     1
 90
       13
176
     1
 40
0.0
176
     1
 90
        0
176
     1
290
     0
176
     1
290
     1
176
     1
290
     1
176
     1
290
     0
176
     1
290
     0
176
     1
290
     0
176
     1
290
     0
176
     1
290
     0
176
     1
290
     0
176
     1
 90
       50
176
     1
 40
0.0
176
     1
 40
1.0
176
     1
 90
        0
176
     1
 62
    18
420
        0
176
     1
 90
       50
176
     1
 90
        3
176
     1
 62
     5
420
      255
176
     1
290
     0
176
     1
 90
       50
176
     1
 90
       50
176
     1
 90
       50
176
     1
290
     0
176
     1
 90
       50
176
     1
 62
   256
176
     0
 40
1.0
176
     0
 90
        2
176
     1
  1
strokes_ogs.tif
176
     1
290
     0
176
     1
 40
1.0
176
     1
 40
1.0
176
     1
  0
VISUALSTYLE
  5
31
102
{ACAD_REACTORS
330
2A
102
}
330
2A
100
AcDbVisualStyle
  2
Hidden
 70
     6
177
     3
291
     0
 70
    58
 90
        1
176
     1
 90
        2
176
     1
 90
        2
176
     1
 90
        0
176
     1
 40
0.6
176
     1
 40
30.0
176
     1
 62
     7
420
 16777215
176
     1
 90
        2
176
     1
 90
        2
176
     1
 62
     7
176
     1
 62
   257
176
     1
 90
        2
176
     1
 90
        1
176
     1
 40
40.0
176
     1
 90
        0
176
     1
 62
   257
176
     1
 40
1.0
176
     1
 90
        1
176
     1
 90
        6
176
     1
 90
        2
176
     1
 62
     7
176
     1
 90
        3
176
     1
 90
        0
176
     1
 90
        0
176
     1
290
     0
176
     1
 90
        1
176
     1
 40
0.0
176
     1
 90
        0
176
     1
290
     0
176
     1
290
     1
176
     1
290
     1
176
     1
290
     0
176
     1
290
     0
176
     1
290
     0
176
     1
290
     0
176
     1
290
     0
176
     1
290
     0
176
     1
 90
       50
176
     1
 40
0.0
176
     1
 40
1.0
176
     1
 90
        0
176
     1
 62
    18
420
        0
176
     1
 90
       50
176
     1
 90
        3
176
     1
 62
     5
420
      255
176
     1
290
     0
176
     1
 90
       50
176
     1
 90
       50
176
     1
 90
       50
176
     1
290
     0
176
     1
 90
       50
176
     1
 62
   256
176
     0
 40
1.0
176
     0
 90
        2
176
     1
  1
strokes_ogs.tif
176
     1
290
     0
176
     1
 40
1.0
176
     1
 40
1.0
176
     1
  0
VISUALSTYLE
  5
3B
102
{ACAD_REACTORS
330
2A
102
}
330
2A
100
AcDbVisualStyle
  2
JitterOff
 70
    20
177
     3
291
     1
 70
    58
 90
        2
176
     0
 90
        2
176
     0
 90
        0
176
     0
 90
        0
176
     0
 40
0.6
176
     0
 40
30.0
176
     0
 62
     7
420
 16777215
176
     0
 90
        1
176
     0
 90
        4
176
     0
 62
     7
176
     0
 62
   257
176
     0
 90
        1
176
     0
 90
        1
176
     0
 40
1.0
176
     0
 90
       10
176
     2
 62
     7
176
     0
 40
1.0
176
     0
 90
        1
176
     0
 90
        6
176
     0
 90
        2
176
     0
 62
     7
176
     0
 90
        5
176
     0
 90
        0
176
     0
 90
        0
176
     0
290
     0
176
     0
 90
        1
176
     0
 40
0.0
176
     0
 90
        0
176
     0
290
     0
176
     0
290
     1
176
     0
290
     1
176
     0
290
     0
176
     0
290
     0
176
     0
290
     0
176
     0
290
     0
176
     0
290
     0
176
     0
290
     0
176
     0
 90
       50
176
     0
 40
0.0
176
     0
 40
1.0
176
     0
 90
        0
176
     0
 62
    18
420
        0
176
     0
 90
       50
176
     0
 90
        3
176
     0
 62
     5
420
      255
176
     0
290
     0
176
     0
 90
       50
176
     0
 90
       50
176
     0
 90
       50
176
     0
290
     0
176
     0
 90
       50
176
     0
 62
   256
176
     0
 40
1.0
176
     0
 90
        2
176
     0
  1
strokes_ogs.tif
176
     0
290
     0
176
     0
 40
1.0
176
     0
 40
1.0
176
     0
  0
VISUALSTYLE
  5
38
102
{ACAD_REACTORS
330
2A
102
}
330
2A
100
AcDbVisualStyle
  2
Linepattern
 70
    14
177
     3
291
     1
 70
    58
 90
        2
176
     1
 90
        2
176
     1
 90
        0
176
     1
 90
        0
176
     1
 40
0.6
176
     1
 40
30.0
176
     1
 62
     7
420
 16777215
176
     1
 90
        1
176
     1
 90
        4
176
     1
 62
     7
176
     1
 62
   257
176
     1
 90
        7
176
     1
 90
        7
176
     1
 40
1.0
176
     1
 90
        8
176
     1
 62
     7
176
     1
 40
1.0
176
     1
 90
        1
176
     1
 90
        6
176
     1
 90
        2
176
     1
 62
     7
176
     1
 90
        5
176
     1
 90
        0
176
     1
 90
        0
176
     1
290
     0
176
     1
 90
        1
176
     1
 40
0.0
176
     1
 90
        0
176
     1
290
     0
176
     1
290
     1
176
     1
290
     1
176
     1
290
     0
176
     1
290
     0
176
     1
290
     0
176
     1
290
     0
176
     1
290
     0
176
     1
290
     0
176
     1
 90
       50
176
     1
 40
0.0
176
     1
 40
1.0
176
     1
 90
        0
176
     1
 62
    18
420
        0
176
     1
 90
       50
176
     1
 90
        3
176
     1
 62
     5
420
      255
176
     1
290
     0
176
     1
 90
       50
176
     1
 90
       50
176
     1
 90
       50
176
     1
290
     0
176
     1
 90
       50
176
     1
 62
   256
176
     0
 40
1.0
176
     0
 90
        2
176
     1
  1
strokes_ogs.tif
176
     1
290
     0
176
     1
 40
1.0
176
     1
 40
1.0
176
     1
  0
VISUALSTYLE
  5
3C
102
{ACAD_REACTORS
330
2A
102
}
330
2A
100
AcDbVisualStyle
  2
OverhangOff
 70
    21
177
     3
291
     1
 70
    58
 90
        2
176
     0
 90
        2
176
     0
 90
        0
176
     0
 90
        0
176
     0
 40
0.6
176
     0
 40
30.0
176
     0
 62
     7
420
 16777215
176
     0
 90
        1
176
     0
 90
        4
176
     0
 62
     7
176
     0
 62
   257
176
     0
 90
        1
176
     0
 90
        1
176
     0
 40
1.0
176
     0
 90
        9
176
     2
 62
     7
176
     0
 40
1.0
176
     0
 90
        1
176
     0
 90
        6
176
     0
 90
        2
176
     0
 62
     7
176
     0
 90
        5
176
     0
 90
        0
176
     0
 90
        0
176
     0
290
     0
176
     0
 90
        1
176
     0
 40
0.0
176
     0
 90
        0
176
     0
290
     0
176
     0
290
     1
176
     0
290
     1
176
     0
290
     0
176
     0
290
     0
176
     0
290
     0
176
     0
290
     0
176
     0
290
     0
176
     0
290
     0
176
     0
 90
       50
176
     0
 40
0.0
176
     0
 40
1.0
176
     0
 90
        0
176
     0
 62
    18
420
        0
176
     0
 90
       50
176
     0
 90
        3
176
     0
 62
     5
420
      255
176
     0
290
     0
176
     0
 90
       50
176
     0
 90
       50
176
     0
 90
       50
176
     0
290
     0
176
     0
 90
       50
176
     0
 62
   256
176
     0
 40
1.0
176
     0
 90
        2
176
     0
  1
strokes_ogs.tif
176
     0
290
     0
176
     0
 40
1.0
176
     0
 40
1.0
176
     0
  0
VISUALSTYLE
  5
33
102
{ACAD_REACTORS
330
2A
102
}
330
2A
100
AcDbVisualStyle
  2
Realistic
 70
     8
177
     3
291
     0
 70
    58
 90
        2
176
     1
 90
        3
176
     1
 90
        0
176
     1
 90
        2
176
     1
 40
0.6
176
     1
 40
30.0
176
     1
 62
     7
420
 16777215
176
     1
 90
        0
176
     1
 90
        0
176
     1
 62
     7
176
     1
 62
   257
176
     1
 90
        1
176
     1
 90
        1
176
     1
 40
1.0
176
     1
 90
        8
176
     1
 62
   257
176
     1
 40
1.0
176
     1
 90
        1
176
     1
 90
        6
176
     1
 90
        2
176
     1
 62
     7
176
     1
 90
        3
176
     1
 90
        0
176
     1
 90
        0
176
     1
290
     0
176
     1
 90
       13
176
     1
 40
0.0
176
     1
 90
        0
176
     1
290
     0
176
     1
290
     1
176
     1
290
     1
176
     1
290
     0
176
     1
290
     0
176
     1
290
     0
176
     1
290
     0
176
     1
290
     0
176
     1
290
     0
176
     1
 90
       50
176
     1
 40
0.0
176
     1
 40
1.0
176
     1
 90
        0
176
     1
 62
    18
420
        0
176
     1
 90
       50
176
     1
 90
        3
176
     1
 62
     5
420
      255
176
     1
290
     0
176
     1
 90
       50
176
     1
 90
       50
176
     1
 90
       50
176
     1
290
     0
176
     1
 90
       50
176
     1
 62
   256
176
     0
 40
1.0
176
     0
 90
        2
176
     1
  1
strokes_ogs.tif
176
     1
290
     0
176
     1
 40
1.0
176
     1
 40
1.0
176
     1
  0
VISUALSTYLE
  5
42
102
{ACAD_REACTORS
330
2A
102
}
330
2A
100
AcDbVisualStyle
  2
Shaded
 70
    27
177
     3
291
     0
 70
    58
 90
        2
176
     1
 90
        2
176
     1
 90
        1
176
     1
 90
        2
176
     1
 40
0.6
176
     1
 40
30.0
176
     1
 62
     7
420
 16777215
176
     1
 90
        0
176
     1
 90
        4
176
     1
 62
     7
176
     1
 62
   257
176
     1
 90
        1
176
     1
 90
        1
176
     1
 40
1.0
176
     1
 90
        8
176
     1
 62
   257
176
     1
 40
1.0
176
     1
 90
        1
176
     1
 90
        6
176
     1
 90
        2
176
     1
 62
     8
420
  7895160
176
     1
 90
        3
176
     1
 90
        0
176
     1
 90
        0
176
     1
290
     0
176
     1
 90
        5
176
     1
 40
0.0
176
     1
 90
        0
176
     1
290
     0
176
     1
290
     1
176
     1
290
     1
176
     1
290
     0
176
     1
290
     0
176
     1
290
     0
176
     1
290
     0
176
     1
290
     0
176
     1
290
     0
176
     1
 90
       50
176
     1
 40
0.0
176
     1
 40
1.0
176
     1
 90
        0
176
     1
 62
    18
420
        0
176
     1
 90
       50
176
     1
 90
        3
176
     1
 62
     5
420
      255
176
     1
290
     0
176
     1
 90
       50
176
     1
 90
       50
176
     1
 90
       50
176
     1
290
     0
176
     1
 90
       50
176
     1
 62
   256
176
     0
 40
1.0
176
     0
 90
        2
176
     1
  1
strokes_ogs.tif
176
     1
290
     0
176
     1
 40
1.0
176
     1
 40
1.0
176
     1
  0
VISUALSTYLE
  5
41
102
{ACAD_REACTORS
330
2A
102
}
330
2A
100
AcDbVisualStyle
  2
Shaded with edges
 70
    26
177
     3
291
     0
 70
    58
 90
        2
176
     1
 90
        2
176
     1
 90
        1
176
     1
 90
        2
176
     1
 40
0.6
176
     1
 40
30.0
176
     1
 62
     7
420
 16777215
176
     1
 90
        1
176
     1
 90
       10
176
     1
 62
     7
176
     1
 62
   257
176
     1
 90
        2
176
     1
 90
        1
176
     1
 40
1.0
176
     1
 90
        8
176
     1
 62
   257
176
     1
 40
1.0
176
     1
 90
        1
176
     1
 90
        6
176
     1
 90
        2
176
     1
 62
     7
176
     1
 90
        3
176
     1
 90
        0
176
     1
 90
        0
176
     1
290
     0
176
     1
 90
        5
176
     1
 40
0.0
176
     1
 90
        0
176
     1
290
     0
176
     1
290
     1
176
     1
290
     1
176
     1
290
     0
176
     1
290
     0
176
     1
290
     0
176
     1
290
     0
176
     1
290
     0
176
     1
290
     0
176
     1
 90
       50
176
     1
 40
0.0
176
     1
 40
1.0
176
     1
 90
        0
176
     1
 62
    18
420
        0
176
     1
 90
       50
176
     1
 90
        3
176
     1
 62
     5
420
      255
176
     1
290
     0
176
     1
 90
       50
176
     1
 90
       50
176
     1
 90
       50
176
     1
290
     0
176
     1
 90
       50
176
     1
 62
   256
176
     0
 40
1.0
176
     0
 90
        2
176
     1
  1
strokes_ogs.tif
176
     1
290
     0
176
     1
 40
1.0
176
     1
 40
1.0
176
     1
  0
VISUALSTYLE
  5
3E
102
{ACAD_REACTORS
330
2A
102
}
330
2A
100
AcDbVisualStyle
  2
Shades of Gray
 70
    23
177
     3
291
     0
 70
    58
 90
        2
176
     1
 90
        2
176
     1
 90
        3
176
     1
 90
        0
176
     1
 40
0.6
176
     1
 40
30.0
176
     1
 62
     7
420
 16777215
176
     1
 90
        2
176
     1
 90
        2
176
     1
 62
     7
176
     1
 62
     7
176
     1
 90
        1
176
     1
 90
        1
176
     1
 40
40.0
176
     1
 90
        8
176
     1
 62
     7
176
     1
 40
1.0
176
     1
 90
        1
176
     1
 90
        6
176
     1
 90
        2
176
     1
 62
     7
176
     1
 90
        3
176
     1
 90
        0
176
     1
 90
        0
176
     1
290
     0
176
     1
 90
        1
176
     1
 40
0.0
176
     1
 90
        0
176
     1
290
     0
176
     1
290
     1
176
     1
290
     1
176
     1
290
     0
176
     1
290
     0
176
     1
290
     0
176
     1
290
     0
176
     1
290
     0
176
     1
290
     0
176
     1
 90
       50
176
     1
 40
0.0
176
     1
 40
1.0
176
     1
 90
        0
176
     1
 62
    18
420
        0
176
     1
 90
       50
176
     1
 90
        3
176
     1
 62
     5
420
      255
176
     1
290
     0
176
     1
 90
       50
176
     1
 90
       50
176
     1
 90
       50
176
     1
290
     0
176
     1
 90
       50
176
     1
 62
   256
176
     0
 40
1.0
176
     0
 90
        2
176
     1
  1
strokes_ogs.tif
176
     1
290
     0
176
     1
 40
1.0
176
     1
 40
1.0
176
     1
  0
VISUALSTYLE
  5
3F
102
{ACAD_REACTORS
330
2A
102
}
330
2A
100
AcDbVisualStyle
  2
Sketchy
 70
    24
177
     3
291
     0
 70
    58
 90
        1
176
     1
 90
        2
176
     1
 90
        2
176
     1
 90
        0
176
     1
 40
0.6
176
     1
 40
30.0
176
     1
 62
     7
420
 16777215
176
     1
 90
        2
176
     1
 90
        2
176
     1
 62
     7
176
     1
 62
     7
176
     1
 90
        1
176
     1
 90
        1
176
     1
 40
40.0
176
     1
 90
       11
176
     1
 62
     7
176
     1
 40
1.0
176
     1
 90
        1
176
     1
 90
        6
176
     1
 90
        2
176
     1
 62
     7
176
     1
 90
        6
176
     1
 90
        0
176
     1
 90
        0
176
     1
290
     0
176
     1
 90
        1
176
     1
 40
0.0
176
     1
 90
        0
176
     1
290
     0
176
     1
290
     1
176
     1
290
     1
176
     1
290
     0
176
     1
290
     0
176
     1
290
     0
176
     1
290
     0
176
     1
290
     0
176
     1
290
     0
176
     1
 90
       50
176
     1
 40
0.0
176
     1
 40
1.0
176
     1
 90
        0
176
     1
 62
    18
420
        0
176
     1
 90
       50
176
     1
 90
        3
176
     1
 62
     5
420
      255
176
     1
290
     0
176
     1
 90
       50
176
     1
 90
       50
176
     1
 90
       50
176
     1
290
     0
176
     1
 90
       50
176
     1
 62
   256
176
     0
 40
1.0
176
     0
 90
        2
176
     1
  1
strokes_ogs.tif
176
     1
290
     0
176
     1
 40
1.0
176
     1
 40
1.0
176
     1
  0
VISUALSTYLE
  5
37
102
{ACAD_REACTORS
330
2A
102
}
330
2A
100
AcDbVisualStyle
  2
Thicken
 70
    13
177
     3
291
     1
 70
    58
 90
        2
176
     1
 90
        2
176
     1
 90
        0
176
     1
 90
        0
176
     1
 40
0.6
176
     1
 40
30.0
176
     1
 62
     7
420
 16777215
176
     1
 90
        1
176
     1
 90
        4
176
     1
 62
     7
176
     1
 62
   257
176
     1
 90
        1
176
     1
 90
        1
176
     1
 40
1.0
176
     1
 90
       12
176
     1
 62
     7
176
     1
 40
1.0
176
     1
 90
        1
176
     1
 90
        6
176
     1
 90
        2
176
     1
 62
     7
176
     1
 90
        5
176
     1
 90
        0
176
     1
 90
        0
176
     1
290
     0
176
     1
 90
        1
176
     1
 40
0.0
176
     1
 90
        0
176
     1
290
     0
176
     1
290
     1
176
     1
290
     1
176
     1
290
     0
176
     1
290
     0
176
     1
290
     0
176
     1
290
     0
176
     1
290
     0
176
     1
290
     0
176
     1
 90
       50
176
     1
 40
0.0
176
     1
 40
1.0
176
     1
 90
        0
176
     1
 62
    18
420
        0
176
     1
 90
       50
176
     1
 90
        3
176
     1
 62
     5
420
      255
176
     1
290
     0
176
     1
 90
       50
176
     1
 90
       50
176
     1
 90
       50
176
     1
290
     0
176
     1
 90
       50
176
     1
 62
   256
176
     0
 40
1.0
176
     0
 90
        2
176
     1
  1
strokes_ogs.tif
176
     1
290
     0
176
     1
 40
1.0
176
     1
 40
1.0
176
     1
  0
VISUALSTYLE
  5
30
102
{ACAD_REACTORS
330
2A
102
}
330
2A
100
AcDbVisualStyle
  2
Wireframe
 70
     5
177
     3
291
     0
 70
    58
 90
        0
176
     1
 90
        2
176
     1
 90
        0
176
     1
 90
        0
176
     1
 40
0.6
176
     1
 40
30.0
176
     1
 62
     7
420
 16777215
176
     1
 90
        1
176
     1
 90
        4
176
     1
 62
     7
176
     1
 62
   257
176
     1
 90
        1
176
     1
 90
        1
176
     1
 40
1.0
176
     1
 90
        0
176
     1
 62
   257
176
     1
 40
1.0
176
     1
 90
        1
176
     1
 90
        6
176
     1
 90
        2
176
     1
 62
     7
176
     1
 90
        3
176
     1
 90
        0
176
     1
 90
        0
176
     1
290
     0
176
     1
 90
        1
176
     1
 40
0.0
176
     1
 90
        0
176
     1
290
     0
176
     1
290
     1
176
     1
290
     1
176
     1
290
     0
176
     1
290
     0
176
     1
290
     0
176
     1
290
     0
176
     1
290
     0
176
     1
290
     0
176
     1
 90
       50
176
     1
 40
0.0
176
     1
 40
1.0
176
     1
 90
        0
176
     1
 62
    18
420
        0
176
     1
 90
       50
176
     1
 90
        3
176
     1
 62
     5
420
      255
176
     1
290
     0
176
     1
 90
       50
176
     1
 90
       50
176
     1
 90
       50
176
     1
290
     0
176
     1
 90
       50
176
     1
 62
   256
176
     0
 40
1.0
176
     0
 90
        2
176
     1
  1
strokes_ogs.tif
176
     1
290
     0
176
     1
 40
1.0
176
     1
 40
1.0
176
     1
  0
VISUALSTYLE
  5
40
102
{ACAD_REACTORS
330
2A
102
}
330
2A
100
AcDbVisualStyle
  2
X-Ray
 70
    25
177
     3
291
     0
 70
    58
 90
        2
176
     1
 90
        2
176
     1
 90
        1
176
     1
 90
        1
176
     1
 40
0.5
176
     1
 40
30.0
176
     1
 62
     7
420
 16777215
176
     1
 90
        1
176
     1
 90
        0
176
     1
 62
     7
176
     1
 62
   257
176
     1
 90
        1
176
     1
 90
        1
176
     1
 40
1.0
176
     1
 90
        8
176
     1
 62
     7
176
     1
 40
1.0
176
     1
 90
        1
176
     1
 90
        6
176
     1
 90
        2
176
     1
 62
     7
176
     1
 90
        3
176
     1
 90
        0
176
     1
 90
        0
176
     1
290
     0
176
     1
 90
       13
176
     1
 40
0.0
176
     1
 90
        0
176
     1
290
     0
176
     1
290
     1
176
     1
290
     1
176
     1
290
     0
176
     1
290
     0
176
     1
290
     0
176
     1
290
     0
176
     1
290
     0
176
     1
290
     0
176
     1
 90
       50
176
     1
 40
0.0
176
     1
 40
1.0
176
     1
 90
        0
176
     1
 62
    18
420
        0
176
     1
 90
       50
176
     1
 90
        3
176
     1
 62
     5
420
      255
176
     1
290
     0
176
     1
 90
       50
176
     1
 90
       50
176
     1
 90
       50
176
     1
290
     0
176
     1
 90
       50
176
     1
 62
   256
176
     0
 40
1.0
176
     0
 90
        2
176
     1
  1
strokes_ogs.tif
176
     1
290
     0
176
     1
 40
1.0
176
     1
 40
1.0
176
     1
  0
DICTIONARYVAR
  5
415
102
{ACAD_REACTORS
330
414
102
}
330
414
100
DictionaryVariables
280
     0
  1
1:1
  0
DICTIONARYVAR
  5
41A
102
{ACAD_REACTORS
330
414
102
}
330
414
100
DictionaryVariables
280
     0
  1
Standard
  0
DICTIONARYVAR
  5
419
102
{ACAD_REACTORS
330
414
102
}
330
414
100
DictionaryVariables
280
     0
  1
Standard
  0
DICTIONARY
  5
416
330
6A
100
AcDbDictionary
280
     1
281
     1
  3
ACAD_ROUNDTRIP_2008_TABLESTYLE_CELLSTYLEMAP
360
417
  0
CELLSTYLEMAP
  5
417
102
{ACAD_REACTORS
330
416
102
}
330
416
100
AcDbCellStyleMap
 90
        3
300
CELLSTYLE
  1
TABLEFORMAT_BEGIN
 90
        5
170
     1
 91
        0
 92
    32768
 62
   257
 93
        1
300
CONTENTFORMAT
  1
CONTENTFORMAT_BEGIN
 90
        0
 91
        0
 92
        4
 93
        0
300

 40
0.0
140
1.0
 94
        5
 62
     0
340
11
144
0.25
309
CONTENTFORMAT_END
171
     1
301
MARGIN
  1
CELLMARGIN_BEGIN
 40
0.06
 40
0.06
 40
0.06
 40
0.06
 40
0.06
 40
0.06
309
CELLMARGIN_END
 94
        6
 95
        1
302
GRIDFORMAT
  1
GRIDFORMAT_BEGIN
 90
        0
 91
        1
 62
     0
 92
       -2
340
14
 93
        0
 40
0.045
309
GRIDFORMAT_END
 95
        2
302
GRIDFORMAT
  1
GRIDFORMAT_BEGIN
 90
        0
 91
        1
 62
     0
 92
       -2
340
14
 93
        0
 40
0.045
309
GRIDFORMAT_END
 95
        4
302
GRIDFORMAT
  1
GRIDFORMAT_BEGIN
 90
        0
 91
        1
 62
     0
 92
       -2
340
14
 93
        0
 40
0.045
309
GRIDFORMAT_END
 95
        8
302
GRIDFORMAT
  1
GRIDFORMAT_BEGIN
 90
        0
 91
        1
 62
     0
 92
       -2
340
14
 93
        0
 40
0.045
309
GRIDFORMAT_END
 95
       16
302
GRIDFORMAT
  1
GRIDFORMAT_BEGIN
 90
        0
 91
        1
 62
     0
 92
       -2
340
14
 93
        0
 40
0.045
309
GRIDFORMAT_END
 95
       32
302
GRIDFORMAT
  1
GRIDFORMAT_BEGIN
 90
        0
 91
        1
 62
     0
 92
       -2
340
14
 93
        0
 40
0.045
309
GRIDFORMAT_END
309
TABLEFORMAT_END
  1
CELLSTYLE_BEGIN
 90
        1
 91
        1
300
_TITLE
309
CELLSTYLE_END
300
CELLSTYLE
  1
TABLEFORMAT_BEGIN
 90
        5
170
     1
 91
        0
 92
        0
 62
   257
 93
        1
300
CONTENTFORMAT
  1
CONTENTFORMAT_BEGIN
 90
        0
 91
        0
 92
        4
 93
        0
300

 40
0.0
140
1.0
 94
        5
 62
     0
340
11
144
0.18
309
CONTENTFORMAT_END
171
     1
301
MARGIN
  1
CELLMARGIN_BEGIN
 40
0.06
 40
0.06
 40
0.06
 40
0.06
 40
0.06
 40
0.06
309
CELLMARGIN_END
 94
        6
 95
        1
302
GRIDFORMAT
  1
GRIDFORMAT_BEGIN
 90
        0
 91
        1
 62
     0
 92
       -2
340
14
 93
        0
 40
0.045
309
GRIDFORMAT_END
 95
        2
302
GRIDFORMAT
  1
GRIDFORMAT_BEGIN
 90
        0
 91
        1
 62
     0
 92
       -2
340
14
 93
        0
 40
0.045
309
GRIDFORMAT_END
 95
        4
302
GRIDFORMAT
  1
GRIDFORMAT_BEGIN
 90
        0
 91
        1
 62
     0
 92
       -2
340
14
 93
        0
 40
0.045
309
GRIDFORMAT_END
 95
        8
302
GRIDFORMAT
  1
GRIDFORMAT_BEGIN
 90
        0
 91
        1
 62
     0
 92
       -2
340
14
 93
        0
 40
0.045
309
GRIDFORMAT_END
 95
       16
302
GRIDFORMAT
  1
GRIDFORMAT_BEGIN
 90
        0
 91
        1
 62
     0
 92
       -2
340
14
 93
        0
 40
0.045
309
GRIDFORMAT_END
 95
       32
302
GRIDFORMAT
  1
GRIDFORMAT_BEGIN
 90
        0
 91
        1
 62
     0
 92
       -2
340
14
 93
        0
 40
0.045
309
GRIDFORMAT_END
309
TABLEFORMAT_END
  1
CELLSTYLE_BEGIN
 90
        2
 91
        1
300
_HEADER
309
CELLSTYLE_END
300
CELLSTYLE
  1
TABLEFORMAT_BEGIN
 90
        5
170
     1
 91
        0
 92
        0
 62
   257
 93
        1
300
CONTENTFORMAT
  1
CONTENTFORMAT_BEGIN
 90
        0
 91
        0
 92
        4
 93
        0
300

 40
0.0
140
1.0
 94
        2
 62
     0
340
11
144
0.18
309
CONTENTFORMAT_END
171
     1
301
MARGIN
  1
CELLMARGIN_BEGIN
 40
0.06
 40
0.06
 40
0.06
 40
0.06
 40
0.06
 40
0.06
309
CELLMARGIN_END
 94
        6
 95
        1
302
GRIDFORMAT
  1
GRIDFORMAT_BEGIN
 90
        0
 91
        1
 62
     0
 92
       -2
340
14
 93
        0
 40
0.045
309
GRIDFORMAT_END
 95
        2
302
GRIDFORMAT
  1
GRIDFORMAT_BEGIN
 90
        0
 91
        1
 62
     0
 92
       -2
340
14
 93
        0
 40
0.045
309
GRIDFORMAT_END
 95
        4
302
GRIDFORMAT
  1
GRIDFORMAT_BEGIN
 90
        0
 91
        1
 62
     0
 92
       -2
340
14
 93
        0
 40
0.045
309
GRIDFORMAT_END
 95
        8
302
GRIDFORMAT
  1
GRIDFORMAT_BEGIN
 90
        0
 91
        1
 62
     0
 92
       -2
340
14
 93
        0
 40
0.045
309
GRIDFORMAT_END
 95
       16
302
GRIDFORMAT
  1
GRIDFORMAT_BEGIN
 90
        0
 91
        1
 62
     0
 92
       -2
340
14
 93
        0
 40
0.045
309
GRIDFORMAT_END
 95
       32
302
GRIDFORMAT
  1
GRIDFORMAT_BEGIN
 90
        0
 91
        1
 62
     0
 92
       -2
340
14
 93
        0
 40
0.045
309
GRIDFORMAT_END
309
TABLEFORMAT_END
  1
CELLSTYLE_BEGIN
 90
        3
 91
        2
300
_DATA
309
CELLSTYLE_END
  0
ENDSEC
  0
EOF
